Loading...
Error

Скачать Затоiчи / Zatôichi (Такеши Китано) [2003, боевик, драма, комедия, криминал, BDRip] [720p] [Dub]+[MVO]+[AVO]+[Оригинал]+[Sub Rus, Eng]x2 торрент без регистрации

Статистика раздачи
Размер:  7,76 GB   |    Скачан:  11 раз
Сидов:  1  [  0 KB/s  ]  
 
 
 
Автор Сообщение

Marsianka

[] 

Информация о фильме
Название: Затоiчи
Оригинальное название: Zatoichi
Год выпуска: 2003
Жанр: боевик, драма, комедия, криминал
Выпущено: Япония, Office Kitano, Bandai Visual Co. Ltd., Dentsu Inc.
Режиссер: Такеши Китано
В ролях: Такеши Китано, Таданобу Асано, Митиё Окусу, Гадаруканару Така, Дайгоро Татибана, Юко Дайкэ, Юи Нацукава, Иттоку Кисибэ, Сабуро Исикура, Акира Эмото

О фильме: Япония, XIX век. Затоичи - слепой странник, который зарабатывает на жизнь игрой в кости и массажем. Но за этим скромным фасадом скрывается боец, искусно владеющий мечом, обладающий молниеносной реакцией и наносящий удары с потрясающей точностью. Затоичи приходит в расположенный высоко в горах городок, находящийся во власти шайки Гиндзо. Безжалостный Гиндзо уничтожает всех, кто становится у него на пути, а с тех пор, как в шайку вступил могучий самурай-ронин Хаттори, - делает это молниеносно. В игорном заведении Затоичи и его верный юный друг Синкити знакомятся с двумя гейшами. Столь же опасные, сколь и красивые, Окину и её сестра Осей пришли в город, чтобы отомстить за убийство своих родителей. Сестрам-гейшам известно лишь таинственное имя Кутинава, но у них в запасе есть масса хитроумных уловок.В скором времени зловещие приспешники Гиндзо начинают охотиться за Затоичи. Затоичи и его легендарному мечу предстоят многочисленные схватки не на жизнь, а на смерть...



Продолжительность: 01:56:00
Перевод: Дублированный, профессиональный многоголосый, авторский
Субтитры: Русские, английские

Файл
Качество: BDRip (720p)
Видео: MPEG-4 AVC, 7848 Кбит/с, 1280х696

Сэмпл
Аудио #1: Русский (AC3, 6 ch, 448 Кбит/с)- Дубляж
Аудио #2: Русский (AC3, 6 ch, 384 Кбит/с)- Профессиональный многоголосый
Аудио #3: Русский (AC3, 6 ch, 448 Кбит/с)- Авторский (Гоблин)
Аудио #4: Японский (AC3, 6 ch, 448 Кбит/с)
Формат : Matroska
Версия формата : Version 2
Размер файла : 7,76 Гбайт
Продолжительность : 1 ч. 55 м.
Общий поток : 9576 Кбит/сек
Название фильма : ~V ad~
Дата кодирования : UTC 2018-02-07 12:27:16
Программа кодирования : mkvmerge v7.8.0 ('River Man') 32bit built on Apr 3 2015 12:11:22
Библиотека кодирования : libebml v1.3.1 + libmatroska v1.4.2
Обложка : Yes
Attachments : cover (2).jpg

Видео
Идентификатор : 1
Формат : AVC
Формат/Информация : Advanced Video Codec
Профиль формата : High@L4.1
Настройки формата : CABAC / 9 Ref Frames
Параметр CABAC формата : Да
Параметр RefFrames формата : 9 кадров
Идентификатор кодека : V_MPEG4/ISO/AVC
Продолжительность : 1 ч. 55 м.
Битрейт : 7848 Кбит/сек
Ширина : 1280 пикселей
Высота : 696 пикселей
Соотношение сторон : 1,85:1
Режим частоты кадров : Постоянный
Частота кадров : 24,000 кадра/сек
Цветовое пространство : YUV
Субдискретизация насыщенности : 4:2:0
Битовая глубина : 8 бит
Тип развёртки : Прогрессивная
Бит/(Пиксели*Кадры) : 0.367
Размер потока : 6,36 Гбайт (82%)
Заголовок : ~V~
Библиотека кодирования : x264 core 152 r2851 ba24899
Настройки кодирования : cabac=1 / ref=9 / deblock=1:-3:-3 / analyse=0x3:0x133 / me=umh / subme=11 / psy=1 / psy_rd=1.00:0.15 / mixed_ref=1 / me_range=32 / chroma_me=1 / trellis=2 / 8x8dct=1 / cqm=0 / deadzone=21,11 / fast_pskip=0 / chroma_qp_offset=-3 / threads=12 / lookahead_threads=1 / sliced_threads=0 / nr=0 / decimate=0 / interlaced=0 / bluray_compat=0 / constrained_intra=0 / bframes=13 / b_pyramid=2 / b_adapt=2 / b_bias=0 / direct=3 / weightb=1 / open_gop=0 / weightp=2 / keyint=240 / keyint_min=24 / scenecut=40 / intra_refresh=0 / rc=2pass / mbtree=0 / bitrate=7848 / ratetol=1.0 / qcomp=0.60 / qpmin=0 / qpmax=69 / qpstep=4 / cplxblur=20.0 / qblur=0.5 / ip_ratio=1.28 / pb_ratio=1.28 / aq=3:0.70
Язык : Английский
Default : Да
Forced : Нет

Аудио #1
Идентификатор : 2
Формат : AC-3
Формат/Информация : Audio Coding 3
Идентификатор кодека : A_AC3
Продолжительность : 1 ч. 55 м.
Вид битрейта : Постоянный
Битрейт : 448 Кбит/сек
Каналы : 6 каналов
Расположение каналов : Front: L C R, Side: L R, LFE
Частота : 48,0 КГц
Частота кадров : 31,250 кадров/сек (1536 SPF)
Битовая глубина : 16 бит
Метод сжатия : С потерями
Размер потока : 372 Мбайт (5%)
Заголовок : Dub
Язык : Русский
Service Kind : Complete Main
Default : Да
Forced : Да

Аудио #2
Идентификатор : 3
Формат : AC-3
Формат/Информация : Audio Coding 3
Идентификатор кодека : A_AC3
Продолжительность : 1 ч. 55 м.
Вид битрейта : Постоянный
Битрейт : 384 Кбит/сек
Каналы : 6 каналов
Расположение каналов : Front: L C R, Side: L R, LFE
Частота : 48,0 КГц
Частота кадров : 31,250 кадров/сек (1536 SPF)
Битовая глубина : 16 бит
Метод сжатия : С потерями
Размер потока : 319 Мбайт (4%)
Заголовок : MVO
Язык : Русский
Service Kind : Complete Main
Default : Нет
Forced : Нет

Аудио #3
Идентификатор : 4
Формат : AC-3
Формат/Информация : Audio Coding 3
Идентификатор кодека : A_AC3
Продолжительность : 1 ч. 55 м.
Вид битрейта : Постоянный
Битрейт : 448 Кбит/сек
Каналы : 6 каналов
Расположение каналов : Front: L C R, Side: L R, LFE
Частота : 48,0 КГц
Частота кадров : 31,250 кадров/сек (1536 SPF)
Битовая глубина : 16 бит
Метод сжатия : С потерями
Размер потока : 372 Мбайт (5%)
Заголовок : AVO[Goblin]
Язык : Русский
Service Kind : Complete Main
Default : Нет
Forced : Нет

Аудио #4
Идентификатор : 5
Формат : AC-3
Формат/Информация : Audio Coding 3
Идентификатор кодека : A_AC3
Продолжительность : 1 ч. 55 м.
Вид битрейта : Постоянный
Битрейт : 448 Кбит/сек
Каналы : 6 каналов
Расположение каналов : Front: L C R, Side: L R, LFE
Частота : 48,0 КГц
Частота кадров : 31,250 кадров/сек (1536 SPF)
Битовая глубина : 16 бит
Метод сжатия : С потерями
Размер потока : 372 Мбайт (5%)
Язык : Японский
Service Kind : Complete Main
Default : Нет
Forced : Нет

Текст #1
Идентификатор : 6
Формат : UTF-8
Идентификатор кодека : S_TEXT/UTF8
Идентификатор кодека/Информация : UTF-8 Plain Text
Продолжительность : 1 ч. 52 м.
Битрейт : 40 бит/сек
ElementCount : 832
Размер потока : 33,6 Кбайт (0%)
Заголовок : BD
Язык : Русский
Default : Нет
Forced : Нет

Текст #2
Идентификатор : 7
Формат : UTF-8
Идентификатор кодека : S_TEXT/UTF8
Идентификатор кодека/Информация : UTF-8 Plain Text
Продолжительность : 1 ч. 51 м.
Битрейт : 41 бит/сек
ElementCount : 750
Размер потока : 33,6 Кбайт (0%)
Заголовок : Goblin
Язык : Русский
Default : Нет
Forced : Нет

Текст #3
Идентификатор : 8
Формат : UTF-8
Идентификатор кодека : S_TEXT/UTF8
Идентификатор кодека/Информация : UTF-8 Plain Text
Продолжительность : 1 ч. 51 м.
Битрейт : 22 бит/сек
ElementCount : 709
Размер потока : 18,0 Кбайт (0%)
Заголовок : BD
Язык : Английский
Default : Нет
Forced : Нет

Меню
00:00:00.000 : en:Chapter 1
00:03:56.583 : en:Chapter 2
00:06:33.583 : en:Chapter 3
00:10:23.208 : en:Chapter 4
00:15:17.041 : en:Chapter 5
00:20:04.458 : en:Chapter 6
00:25:52.583 : en:Chapter 7
00:29:18.875 : en:Chapter 8
00:35:44.083 : en:Chapter 9
00:44:49.166 : en:Chapter 10
00:49:32.333 : en:Chapter 11
00:56:18.208 : en:Chapter 12
01:01:52.791 : en:Chapter 13
01:13:17.750 : en:Chapter 14
01:18:48.250 : en:Chapter 15
01:25:42.833 : en:Chapter 16
01:33:10.791 : en:Chapter 17
01:40:46.291 : en:Chapter 18
01:49:03.375 : en:Chapter 19
01:52:48.083 : en:Chapter 20
приз публики на МКФ в Торонто, главная премия, приз за музыку и награда публики (поровну с фильмом «Убить Билла. Т.1» / Kill Bill. Vol. 1) на МКФ в Ситжесе, премии Японской киноакадемии — за музыку, операторскую работу, свет (Хитоси Такая), звук (Сэндзи Хориути) и монтаж (Такэси Китано, Ёсинори Оота), «Голубая лента» и приз «Кинема дзюнпо» за второплановую женскую роль (Митиё Окусу — также за участие в фильме «Самоубийство из-за любви, совершённое у сорока семи водопадов Акамэ» / Акамэ сидзуя таки синдзю мисуи)

Венецианский кинофестиваль, 2003 год
Победитель (4):
Приз зрительских симпатий за лучший фильм
Открытый приз
Приз «Future Film Festival Digital Award»
Специальная режиссерская награда ( Такеши Китано )
Номинации (1):
Золотой лев

Европейская киноакадемия, 2003 год
Номинации (1):
Приз Screen International Award
Релиз от:



Скачать Затоiчи.Zatôichi.(Такеши.Китано).[2003.боевик.драма.комедия.криминал.BDRip].[720p].[Dub]+[MVO]+[AVO]+[Оригинал]+[Sub.Rus.Eng]x2.torrent без регистрации
Золото ЗОЛОТАЯ РАЗДАЧА! СКАЧАННОЕ НЕ ЗАСЧИТЫВАЕТСЯ! Золото
Дата: Зарегистрирован   [ Тип: внутренний ] Как тут cкачать?
MAGNET ссылка
MAGNET ссылка


Скачать .torrent

21 KB

Статус: проверено DHT
Скачан: торрент - 11 раз, раздача полностью - 0 раз
Размер: 7,76 GB
Оценка:  - (Голосов: 0)
Поблагодарили: 0
Поделиться ссылкой на эту раздачу с друзьями:
В контактеFacebookОдноклассникиTwitterLivejournalМой МирLiveinternet
 

 
Показать сообщения:    


Вы не можете начинать темы
Вы не можете отвечать на сообщения
Вы не можете редактировать свои сообщения
Вы не можете удалять свои сообщения
Вы не можете голосовать в опросах
Вы не можете прикреплять файлы к сообщениям
Вы можете скачивать файлы