Loading...
Error

Скачать Сила личности / The Power of One (Джон Г. Эвилдсен) [1992, драма, WEB-DLRip] [720p] [MVO]+[AVO]x2+[Eng]+[Sub Rus, Eng] торрент без регистрации

Статистика раздачи
Размер:  7,33 GB   |    Скачан:  10 раз
Сидов:  1  [  0 KB/s  ]  
 
 
 
Автор Сообщение

Marsianka

[] 

Информация о фильме
Название: Сила личности
Оригинальное название: The Power of One
Год выпуска: 1992
Жанр: драма
Режиссер: Джон Г. Эвилдсен
В ролях: Стивен Дорфф (P.K. Age 18), Джон Гилгуд (St. John), Морган Фриман (Geel Piet), Армин Мюллер-Шталь (Doc), Фэй Мастерсон (Maria), Дэниэл Крэйг (Sgt. Botha), Номадлози Кубека (Nanny), Агата Хёрл (Midwife), Найджел Айви (P.K. Newborn), Трейси Брук Своуп (Mother), Брендан Дири (P.K. Infant), Уинстон Мангварара (Tonderai Infant)

О фильме:
Маленький англичанин осиротел в Южной Африке, в стране и во времена, когда людей разделяли по расовой принадлежности и национальности. История его взросления и становления как человека, боксера и борца за справедливость рассказывается в этой мощной, трогательной драме, мастерски поставленной и сыгранной.



MPAA: PG-13 - Детям до 13 лет просмотр не желателен

Страна: Австралия, Франция, США
Студия: Alcor Films, Canal+ [fr], Regency Enterprises, Village Roadshow Pictures
Продолжительность: 02:07:05
Перевод: Профессиональный (многоголосый, закадровый) НТВ+ + Авторский (одноголосый, закадровый) Л.Володарский + Авторский (одноголосый, закадровый) В.Горчаков

Релиз:

Файл
Качество: WEB-DLRip 720p | исх. The.Power.of.One.1992.1080p.AMZN-monkee
Формат: Matroska
Видео: 1280x694 at 23.976 fps, x264, ~7459 kbps avg
Аудио#1: Russian: 48 kHz, AC3, 2/0 (L,R) ch, ~192 kbps avg |Многоголосый закадровый, НТВ+ (со вставкой В.Горчакова на момент без перевода)|
Аудио#2: Russian: 48 kHz, AC3, 2/0 (L,R) ch, ~192 kbps avg |Авторский, Л.Володарский|
Аудио#3: Russian: 48 kHz, AC3, 2/0 (L,R) ch, ~192 kbps avg |Авторский, В.Горчаков|
Аудио#4: English: 48 kHz, EAC3, 2/0 (L,R) ch, ~224 kbps avg
Субтитры: Russian, English, ...
***Сохранены и подписаны оригинальные главы.
***Релиз: MZMA.
Фильм снят по мотивам одноимённого романа-бестселлера Брайса Куртеней (Bryce Courtenay), который был опубликован ранее, в 1989 году, в Австралии.
Общее
Уникальный идентификатор : 217028283883258874696730453372978931913 (0xA3462087B92E75B1BDB6BA9F5D8528C9)
Полное имя : Сила.личности.1992.WEB-DLRip.720p.KORSAR.mkv
Формат : Matroska
Версия формата : Version 2
Размер файла : 7,33 Гбайт
Продолжительность : 2 ч. 7 м.
Общий поток : 8259 Кбит/сек
Дата кодирования : UTC 2018-02-06 14:41:42
Программа кодирования : mkvmerge v5.8.0 ('No Sleep / Pillow') built on Sep 2 2012 15:37:04
Библиотека кодирования : libebml v1.2.3 + libmatroska v1.3.0

Видео
Идентификатор : 1
Формат : AVC
Формат/Информация : Advanced Video Codec
Профиль формата : High@L4.1
Параметр CABAC формата : Да
Параметр ReFrames формата : 9 кадров
Идентификатор кодека : V_MPEG4/ISO/AVC
Продолжительность : 2 ч. 7 м.
Битрейт : 7459 Кбит/сек
Ширина : 1280 пикселей
Высота : 694 пикселя
Соотношение сторон : 1,85:1
Режим частоты кадров : Постоянный
Частота кадров : 23,976 кадра/сек
Цветовое пространство : YUV
Субдискретизация насыщенности : 4:2:0
Битовая глубина : 8 бит
Тип развёртки : Прогрессивная
Бит/(Пиксели*Кадры) : 0.350
Размер потока : 6,48 Гбайт (88%)
Библиотека кодирования : x264 core 152 r2851kMod ba24899
Настройки программы : cabac=1 / ref=9 / deblock=1:-2:-2 / analyse=0x3:0x113 / me=umh / subme=11 / psy=1 / fade_compensate=0.00 / psy_rd=0.90:0.05 / mixed_ref=1 / me_range=48 / chroma_me=1 / trellis=2 / 8x8dct=1 / cqm=0 / deadzone=21,11 / fast_pskip=0 / chroma_qp_offset=-3 / threads=6 / lookahead_threads=1 / sliced_threads=0 / nr=0 / decimate=0 / interlaced=0 / bluray_compat=0 / constrained_intra=0 / bframes=16 / b_pyramid=2 / b_adapt=2 / b_bias=0 / direct=3 / weightb=1 / open_gop=0 / weightp=2 / keyint=240 / keyint_min=23 / scenecut=40 / intra_refresh=0 / rc_lookahead=40 / rc=2pass / mbtree=0 / bitrate=7459 / ratetol=1.0 / qcomp=0.60 / qpmin=0 / qpmax=69 / qpstep=4 / cplxblur=20.0 / qblur=0.5 / vbv_maxrate=50000 / vbv_bufsize=62500 / nal_hrd=none / filler=0 / ip_ratio=1.25 / pb_ratio=1.30 / aq=3:0.70
Язык : English
Default : Да
Forced : Нет
Основные цвета : BT.709
Характеристики трансфера : BT.709
Коэффициенты матрицы : BT.709

Аудио #1
Идентификатор : 2
Формат : AC-3
Формат/Информация : Audio Coding 3
Расширение режима : CM (complete main)
Параметр Endianness формата : Big
Идентификатор кодека : A_AC3
Продолжительность : 2 ч. 7 м.
Вид битрейта : Постоянный
Битрейт : 192 Кбит/сек
Каналы : 2 канала
Расположение каналов : Front: L R
Частота : 48,0 КГц
Битовая глубина : 16 бит
Метод сжатия : С потерями
Размер потока : 175 Мбайт (2%)
Заголовок : MVO | НТВ+
Язык : Russian
Default : Да
Forced : Нет

Аудио #2
Идентификатор : 3
Формат : AC-3
Формат/Информация : Audio Coding 3
Расширение режима : CM (complete main)
Параметр Endianness формата : Big
Идентификатор кодека : A_AC3
Продолжительность : 2 ч. 7 м.
Вид битрейта : Постоянный
Битрейт : 192 Кбит/сек
Каналы : 2 канала
Расположение каналов : Front: L R
Частота : 48,0 КГц
Битовая глубина : 16 бит
Метод сжатия : С потерями
Размер потока : 175 Мбайт (2%)
Заголовок : AVO | Л. Володарский
Язык : Russian
Default : Нет
Forced : Нет

Аудио #3
Идентификатор : 4
Формат : AC-3
Формат/Информация : Audio Coding 3
Расширение режима : CM (complete main)
Параметр Endianness формата : Big
Идентификатор кодека : A_AC3
Продолжительность : 2 ч. 7 м.
Вид битрейта : Постоянный
Битрейт : 192 Кбит/сек
Каналы : 2 канала
Расположение каналов : Front: L R
Частота : 48,0 КГц
Битовая глубина : 16 бит
Метод сжатия : С потерями
Размер потока : 175 Мбайт (2%)
Заголовок : AVO | В. Горчаков
Язык : Russian
Default : Нет
Forced : Нет

Аудио #4
Идентификатор : 5
Формат : E-AC-3
Формат/Информация : Audio Coding 3
Параметр Endianness формата : Big
Идентификатор кодека : A_EAC3
Продолжительность : 2 ч. 7 м.
Вид битрейта : Постоянный
Битрейт : 224 Кбит/сек
Каналы : 2 канала
Расположение каналов : Front: L R
Частота : 48,0 КГц
Метод сжатия : С потерями
Размер потока : 204 Мбайт (3%)
Заголовок : Original
Язык : English
Default : Нет
Forced : Нет

Текст #1
Идентификатор : 6
Формат : UTF-8
Идентификатор кодека : S_TEXT/UTF8
Идентификатор кодека/Информация : UTF-8 Plain Text
Язык : Russian
Default : Нет
Forced : Нет

Текст #2
Идентификатор : 7
Формат : UTF-8
Идентификатор кодека : S_TEXT/UTF8
Идентификатор кодека/Информация : UTF-8 Plain Text
Язык : English
Default : Нет
Forced : Нет

Текст #3
Идентификатор : 8
Формат : UTF-8
Идентификатор кодека : S_TEXT/UTF8
Идентификатор кодека/Информация : UTF-8 Plain Text
Заголовок : English for the Hearing Impaired
Язык : English
Default : Нет
Forced : Нет

Текст #4
Идентификатор : 9
Формат : UTF-8
Идентификатор кодека : S_TEXT/UTF8
Идентификатор кодека/Информация : UTF-8 Plain Text
Заголовок : SDH
Язык : English
Default : Нет
Forced : Нет

Текст #5
Идентификатор : 10
Формат : UTF-8
Идентификатор кодека : S_TEXT/UTF8
Идентификатор кодека/Информация : UTF-8 Plain Text
Язык : Danish
Default : Нет
Forced : Нет

Текст #6
Идентификатор : 11
Формат : UTF-8
Идентификатор кодека : S_TEXT/UTF8
Идентификатор кодека/Информация : UTF-8 Plain Text
Язык : German
Default : Нет
Forced : Нет

Текст #7
Идентификатор : 12
Формат : UTF-8
Идентификатор кодека : S_TEXT/UTF8
Идентификатор кодека/Информация : UTF-8 Plain Text
Язык : Spanish
Default : Нет
Forced : Нет

Текст #8
Идентификатор : 13
Формат : UTF-8
Идентификатор кодека : S_TEXT/UTF8
Идентификатор кодека/Информация : UTF-8 Plain Text
Язык : Finnish
Default : Нет
Forced : Нет

Текст #9
Идентификатор : 14
Формат : UTF-8
Идентификатор кодека : S_TEXT/UTF8
Идентификатор кодека/Информация : UTF-8 Plain Text
Язык : French
Default : Нет
Forced : Нет

Текст #10
Идентификатор : 15
Формат : UTF-8
Идентификатор кодека : S_TEXT/UTF8
Идентификатор кодека/Информация : UTF-8 Plain Text
Язык : Italian
Default : Нет
Forced : Нет

Текст #11
Идентификатор : 16
Формат : UTF-8
Идентификатор кодека : S_TEXT/UTF8
Идентификатор кодека/Информация : UTF-8 Plain Text
Язык : Norwegian Bokmal
Default : Нет
Forced : Нет

Текст #12
Идентификатор : 17
Формат : UTF-8
Идентификатор кодека : S_TEXT/UTF8
Идентификатор кодека/Информация : UTF-8 Plain Text
Язык : Dutch
Default : Нет
Forced : Нет

Текст #13
Идентификатор : 18
Формат : UTF-8
Идентификатор кодека : S_TEXT/UTF8
Идентификатор кодека/Информация : UTF-8 Plain Text
Язык : Polish
Default : Нет
Forced : Нет

Текст #14
Идентификатор : 19
Формат : UTF-8
Идентификатор кодека : S_TEXT/UTF8
Идентификатор кодека/Информация : UTF-8 Plain Text
Язык : Portuguese
Default : Нет
Forced : Нет

Текст #15
Идентификатор : 20
Формат : UTF-8
Идентификатор кодека : S_TEXT/UTF8
Идентификатор кодека/Информация : UTF-8 Plain Text
Язык : Swedish
Default : Нет
Forced : Нет

Меню
00:00:00.000 : en:Sad news
00:10:29.000 : en:PK's vision: Dabula Manzi restores his name
00:14:29.000 : en:Brute force
00:19:44.000 : en:Doc
00:25:43.000 : en:Barberton Prison
00:28:11.000 : en:Geel Piet
00:36:55.000 : en:A rainmaker
00:39:24.000 : en:Sgt. Bormann's boot
00:43:14.000 : en:A concert takes shape
00:49:29.000 : en:Opening remarks…translated
00:52:10.000 : en:The concert begins
00:53:47.000 : en:A free man
00:57:45.000 : en:The key to survival
01:00:06.000 : en:Eye contact
01:03:51.000 : en:A nighttime visit
01:06:12.000 : en:Gruenewald takes PK on
01:10:11.000 : en:Meeting Dr. Marais
01:12:57.000 : en:A boxing challenge
01:24:59.000 : en:An invitation from Maria
01:27:13.000 : en:A morning run full of questions
01:31:30.000 : en:The answer in nature
01:32:50.000 : en:A drop of water
01:34:56.000 : en:"I won't hate like you."
01:42:09.000 : en:Full of animals
01:44:52.000 : en:Daring the opponent
01:51:35.000 : en:"It works."
01:53:32.000 : en:Township under siege
01:56:23.000 : en:Showdown with Botha
01:59:10.000 : en:The voices of Africa
02:00:28.000 : en:Coda and End Credits



Скачать Сила.личности.The.Power.of.One.(Джон.Г.Эвилдсен).[1992.драма.WEB-DLRip].[720p].[MVO]+[AVO]x2+[Eng]+[Sub.Rus.Eng].torrent без регистрации
Золото ЗОЛОТАЯ РАЗДАЧА! СКАЧАННОЕ НЕ ЗАСЧИТЫВАЕТСЯ! Золото
Дата: Зарегистрирован   [ Тип: внутренний ] Как тут cкачать?
MAGNET ссылка
MAGNET ссылка


Скачать .torrent

38 KB

Статус: проверено DHT
Скачан: торрент - 10 раз, раздача полностью - 0 раз
Размер: 7,33 GB
Оценка:  - (Голосов: 0)
Поблагодарили: 0
Поделиться ссылкой на эту раздачу с друзьями:
В контактеFacebookОдноклассникиTwitterLivejournalМой МирLiveinternet
 

 
Показать сообщения:    


Вы не можете начинать темы
Вы не можете отвечать на сообщения
Вы не можете редактировать свои сообщения
Вы не можете удалять свои сообщения
Вы не можете голосовать в опросах
Вы не можете прикреплять файлы к сообщениям
Вы можете скачивать файлы