Loading...
Error

Скачать Грязная дюжина / The Dirty Dozen (Роберт Олдрич) [1967, военный, драма, BDRip] [1080p] [MVO]x2+[Eng]+[Sub Rus, Eng]x2 торрент без регистрации

Статистика раздачи
Размер:  12,9 GB   |    Скачан:  10 раз
Сидов:  1  [  0 KB/s  ]  
 
 
 
Автор Сообщение

Marsianka

[] 

Информация о фильме
Название: Грязная дюжина
Оригинальное название: The Dirty Dozen
Год выхода: 1967
Страна: США, Великобритания
Жанр: военный, драма
Продолжительность: 02:29:38

Режиссер: Роберт Олдрич

В ролях: Ли Марвин, Эрнест Боргнайн, Чарльз Бронсон, Джим Браун, Джон Кассаветис, Ричард Джекел, Джордж Кеннеди

О фильме: Экранизация романа Е. М. Натансона.
Во время Второй мировой войны двенадцать американцев — убийц, насильников и прочих преступников, посаженных в тюрьму и ждущих приговора — получают шанс искупить свою вину, выполнив задание, сулящее им верную смерть.


1967 — Золотая медаль журнала Photoplay
1968 — премия «Оскар» за лучшие звуковые эффекты (Джон Пойнер), а также три номинации: лучший актёр второго плана (Джон Кассаветис), лучший монтаж (Майкл Лучано), лучший звук
1968 — премия Eddie Американской ассоциации монтажёров за лучший монтаж художественного фильма (Майкл Лучано)
1968 — три премии Laurel Awards: лучший актёр (Ли Марвин), лучший актёр второго плана (Джим Браун), лучший фильм в жанре боевик/драма; а также номинация на премию лучшему актеру второго плана (Джон Кассаветис)
1968 — номинация на премию Гильдии режиссеров США за лучшую режиссуру художественного фильма (Роберт Олдрич)
1968 — номинация на премию «Золотой глобус» лучшему актеру второго плана (Джон Кассаветис)
Файл
Качество: BDRip 1080p
Формат: MKV
Видео: MPEG4 Video (H264), 1920x800, 23.976fps, 11.0 Mbps
Профессиональный (многоголосый закадровый) Universal Pictures
Перевод: Профессиональный (многоголосый закадровый) SomeWax
Cубтитры: Русские, английские
Аудио #1: Русский, Dolby AC3, 48000 Hz, 6ch, 448 kbps - многоголосый, Universal Pictures
Аудио #2: Русский, Dolby AC3, 48000 Hz, 6ch, 448 kbps - многоголосый, SomeWax
Аудио #3: Английский, Dolby AC3, 48000 Hz, 6ch, 448 kbps
Формат субтитров: softsub (SRT)
Сэмпл

General
Unique ID : 176321930707081175154162666769233423153 (0x84A65E5DE2EFE814ACC769D19F732B31)
Complete name : G:DVDRip1967 Грязная дюжина1967 Грязная дюжина.mkv
Format : Matroska
Format version : Version 4 / Version 2
File size : 12.9 GiB
Duration : 2h 29mn
Overall bit rate : 12.3 Mbps
Movie name : 1967 Грязная дюжина / renta23
Encoded date : UTC 2016-03-15 08:42:03
Writing application : mkvmerge v8.3.0 ('Over the Horizon') 64bit
Writing library : libebml v1.3.1 + libmatroska v1.4.2

Video
ID : 1
Format : AVC
Format/Info : Advanced Video Codec
Format profile : High@L4.1
Format settings, CABAC : Yes
Format settings, ReFrames : 4 frames
Codec ID : V_MPEG4/ISO/AVC
Duration : 2h 29mn
Bit rate : 11.0 Mbps
Width : 1 920 pixels
Height : 1 080 pixels
Display aspect ratio : 16:9
Frame rate mode : Constant
Frame rate : 23.976 (24000/1001) fps
Color space : YUV
Chroma subsampling : 4:2:0
Bit depth : 8 bits
Scan type : Progressive
Bits/(Pixel*Frame) : 0.221
Stream size : 11.5 GiB (89%)
Title : 1967 Грязная дюжина
Writing library : x264 core 146 r2538 121396c
Encoding settings : cabac=1 / ref=4 / deblock=1:-1:-1 / analyse=0x3:0x133 / me=umh / subme=11 / psy=1 / psy_rd=1.07:0.23 / mixed_ref=1 / me_range=32 / chroma_me=1 / trellis=2 / 8x8dct=1 / cqm=0 / deadzone=21,11 / fast_pskip=0 / chroma_qp_offset=-3 / threads=12 / lookahead_threads=3 / sliced_threads=0 / nr=0 / decimate=1 / interlaced=0 / bluray_compat=0 / constrained_intra=0 / bframes=12 / b_pyramid=2 / b_adapt=2 / b_bias=0 / direct=3 / weightb=1 / open_gop=0 / weightp=2 / keyint=250 / keyint_min=23 / scenecut=40 / intra_refresh=0 / rc=2pass / mbtree=0 / bitrate=11000 / ratetol=1.0 / qcomp=0.60 / qpmin=0 / qpmax=69 / qpstep=4 / cplxblur=20.0 / qblur=0.5 / ip_ratio=1.40 / pb_ratio=1.30 / aq=2:1.00
Language : English
Default : Yes
Forced : No

Audio #1
ID : 2
Format : AC-3
Format/Info : Audio Coding 3
Mode extension : CM (complete main)
Format settings, Endianness : Big
Codec ID : A_AC3
Duration : 2h 29mn
Bit rate mode : Constant
Bit rate : 448 Kbps
Channel(s) : 6 channels
Channel positions : Front: L C R, Side: L R, LFE
Sampling rate : 48.0 KHz
Frame rate : 31.250 fps (1536 spf)
Compression mode : Lossy
Stream size : 479 MiB (4%)
Title : Многоголосый, Universal Pictures
Language : Russian
Default : Yes
Forced : No

Audio #2
ID : 3
Format : AC-3
Format/Info : Audio Coding 3
Mode extension : CM (complete main)
Format settings, Endianness : Big
Codec ID : A_AC3
Duration : 2h 29mn
Bit rate mode : Constant
Bit rate : 448 Kbps
Channel(s) : 6 channels
Channel positions : Front: L C R, Side: L R, LFE
Sampling rate : 48.0 KHz
Frame rate : 31.250 fps (1536 spf)
Compression mode : Lossy
Stream size : 479 MiB (4%)
Title : Многоголосый, SomeWax
Language : Russian
Default : No
Forced : No

Audio #3
ID : 4
Format : AC-3
Format/Info : Audio Coding 3
Mode extension : CM (complete main)
Format settings, Endianness : Big
Codec ID : A_AC3
Duration : 2h 29mn
Bit rate mode : Constant
Bit rate : 448 Kbps
Channel(s) : 6 channels
Channel positions : Front: L C R, Side: L R, LFE
Sampling rate : 48.0 KHz
Frame rate : 31.250 fps (1536 spf)
Compression mode : Lossy
Stream size : 479 MiB (4%)
Language : English
Default : No
Forced : No

Text #1
ID : 5
Format : UTF-8
Codec ID : S_TEXT/UTF8
Codec ID/Info : UTF-8 Plain Text
Duration : 2h 8mn
Bit rate : 1 bps
Count of elements : 16
Stream size : 973 Bytes (0%)
Title : Force
Language : Russian
Default : Yes
Forced : No

Text #2
ID : 6
Format : UTF-8
Codec ID : S_TEXT/UTF8
Codec ID/Info : UTF-8 Plain Text
Duration : 2h 29mn
Bit rate : 81 bps
Count of elements : 1549
Stream size : 88.6 KiB (0%)
Language : Russian
Default : No
Forced : No

Text #3
ID : 7
Format : UTF-8
Codec ID : S_TEXT/UTF8
Codec ID/Info : UTF-8 Plain Text
Duration : 2h 29mn
Bit rate : 54 bps
Count of elements : 1578
Stream size : 59.6 KiB (0%)
Language : English
Default : No
Forced : No

Text #4
ID : 8
Format : UTF-8
Codec ID : S_TEXT/UTF8
Codec ID/Info : UTF-8 Plain Text
Duration : 2h 29mn
Bit rate : 58 bps
Count of elements : 1696
Stream size : 64.0 KiB (0%)
Title : SDH
Language : English
Default : No
Forced : No

Menu
00:00:00.000 : en:End of his Rope
00:02:20.140 : en:Project Amnesty
00:11:28.854 : en:Roll Call and Credits
00:14:54.059 : en:Deadhead Drill
00:18:55.467 : en:Happy, Smiling Faces
00:27:57.342 : en:Three Ways to Go
00:30:59.858 : en:Home Construction
00:36:20.178 : en:Einsam
00:38:19.296 : en:Going to the Can
00:40:48.779 : en:Rope Trick
00:42:35.719 : en:Picking on Posey
00:46:05.596 : en:Physical and Mental Associations
00:50:53.884 : en:Dirty Dozen
00:54:39.943 : en:Top-Secret Operation
00:56:26.883 : en:General Inspection
01:03:18.795 : en:Latrine Beating
01:06:17.139 : en:The Bramble Bush
01:07:46.062 : en:Graduation Ball
01:14:02.438 : en:Surprise Visitor
01:17:46.161 : en:No Need for Breed
01:20:45.340 : en:Six-Week Review
01:24:26.061 : en:Divisional Maneuvers
01:30:12.907 : en:Infiltrating the Command Post
01:36:15.936 : en:Officer Overboard
01:40:19.013 : en:Last Supper
01:44:08.909 : en:Mission Underway
01:46:37.391 : en:Gaining Entrance
01:51:43.947 : en:Taking Up Positions
01:56:41.160 : en:Putting His Foot In It
02:02:44.690 : en:Looking For Wolfgang
02:07:42.988 : en:State of Alarm
02:10:45.337 : en:Locked in the Bunker
02:14:35.233 : en:Air Vent Ambush
02:17:14.392 : en:Gasoline and Grenades
02:21:46.331 : en:"Blow It!"
02:27:04.315 : en:Taking their Leave
02:28:57.011 : en:Cast List



Скачать Грязная.дюжина.The.Dirty.Dozen.(Роберт.Олдрич).[1967.военный.драма.BDRip].[1080p].[MVO]x2+[Eng]+[Sub.Rus.Eng]x2.torrent без регистрации
Золото ЗОЛОТАЯ РАЗДАЧА! СКАЧАННОЕ НЕ ЗАСЧИТЫВАЕТСЯ! Золото
Дата: Зарегистрирован   [ Тип: внутренний ] Как тут cкачать?
MAGNET ссылка
MAGNET ссылка


Скачать .torrent

65 KB

Статус: проверено DHT
Скачан: торрент - 10 раз, раздача полностью - 0 раз
Размер: 12,9 GB
Оценка:  - (Голосов: 0)
Поблагодарили: 0
Поделиться ссылкой на эту раздачу с друзьями:
В контактеFacebookОдноклассникиTwitterLivejournalМой МирLiveinternet
 

 
Показать сообщения:    


Вы не можете начинать темы
Вы не можете отвечать на сообщения
Вы не можете редактировать свои сообщения
Вы не можете удалять свои сообщения
Вы не можете голосовать в опросах
Вы не можете прикреплять файлы к сообщениям
Вы можете скачивать файлы