Loading...
Error

Скачать Атомная школа 3 / Class of Nuke 'Em High Part 3: The Good, the Bad and the Subhumanoid (Эрик Лузил) [1995, фантастика, боевик, комедия, BDRemux] [1080р] [AVO (Антон Алексеев)]+[Оригинал Eng]+[Sub Eng] торрент без регистрации

Статистика раздачи
Размер:  16,88 GB   |    Скачан:  18 раз
Сидов:  1  [  0 KB/s  ]  
 
 
 
Автор Сообщение

Marsianka

[] 

Информация о фильме
Название: Атомная школа 3
Оригинальное название: Class of Nuke 'Em High Part 3: The Good, the Bad and the Subhumanoid
Год выхода: 1995
Жанр: фантастика, боевик, комедия
Режиссер: Эрик Лузил
В ролях: Брик Бронски, Лиза Стар, Джон Таллман, Лиза Гайе, Альберт Беар, Элизабет Янг, Бионика, Валери МакКоннелл, Кэтлин Кэйн

О фильме: Тромавилль подвергается нашествию армии сабгуманоидов, возглавляемых злобным доктором Слэгом и его подельницей — профессоршей Холт.



Страна: США
Продолжительность: 01:41:15
Авторский (одноголосый, закадровый) Антон Алексеев)
Субтитры: английские
Оригинальная аудиодорожка: английский
Файл
Качество: BDRemux 1080р
Видео: 1920x1080 / MPEG-4 AVC Video / 23253 kbps / 23.976 fps / 16:9 / High Profile 4.1
Аудио 1: Русский, AC3 2.0 224 Kbps 48,0 КГц (Alekseev)
Аудио 2: English, AC3 2.0 192 kbps 48,0 КГц (Original)
Аудио 3: English, AC3 2.0 192 Kbps 48,0 КГц (Commentary)
Общее
Уникальный идентификатор : 239708067282898395832631311050882396140 (0xB456182F210A446D834F6EC9EA7FAFEC)
Полное имя : Class.Of.Nuke.Em.High.III.BDRemux.1080p.Rus.Eng.mkv
Формат : Matroska
Версия формата : Version 4 / Version 2
Размер файла : 16,9 Гбайт
Продолжительность : 1 ч. 41 м.
Режим общего битрейта : Переменный
Общий поток : 23,9 Мбит/сек
Название фильма : CLASS OF NUKE EM HIGH 3
Дата кодирования : UTC 2018-01-26 16:39:23
Программа кодирования : mkvmerge v9.8.0 ('Kuglblids') 32bit
Библиотека кодирования : libebml v1.3.4 + libmatroska v1.4.5

Видео
Идентификатор : 1
Формат : AVC
Формат/Информация : Advanced Video Codec
Профиль формата : High@L4.1
Параметр CABAC формата : Да
Параметр ReFrames формата : 3 кадра
Идентификатор кодека : V_MPEG4/ISO/AVC
Продолжительность : 1 ч. 41 м.
Вид битрейта : Переменный
Битрейт : 23,3 Мбит/сек
Максимальный битрейт : 30,0 Мбит/сек
Ширина : 1920 пикселей
Высота : 1080 пикселей
Соотношение сторон : 16:9
Режим частоты кадров : Постоянный
Частота кадров : 23,976 (24000/1001) кадра/сек
Стандарт вещания : NTSC
Цветовое пространство : YUV
Субдискретизация насыщенности : 4:2:0
Битовая глубина : 8 бит
Тип развёртки : Прогрессивная
Бит/(Пиксели*Кадры) : 0.468
Размер потока : 16,4 Гбайт (97%)
Заголовок : CLASS OF NUKE EM HIGH 3
Default : Нет
Forced : Нет
Цветовой диапазон : Limited
Основные цвета : BT.709
Характеристики трансфера : BT.709
Коэффициенты матрицы : BT.709

Аудио #1
Идентификатор : 2
Формат : AC-3
Формат/Информация : Audio Coding 3
Расширение режима : CM (complete main)
Параметр Endianness формата : Big
Идентификатор кодека : A_AC3
Продолжительность : 1 ч. 41 м.
Вид битрейта : Постоянный
Битрейт : 224 Кбит/сек
Каналы : 2 канала
Расположение каналов : Front: L R
Частота : 48,0 КГц
Частота кадров : 31,250 кадров/сек (1536 spf)
Битовая глубина : 16 бит
Метод сжатия : С потерями
Размер потока : 162 Мбайт (1%)
Заголовок : Alekseev AC3 2.0 224 kbps
Язык : Russian
Default : Нет
Forced : Нет

Аудио #2
Идентификатор : 3
Формат : AC-3
Формат/Информация : Audio Coding 3
Расширение режима : CM (complete main)
Параметр Endianness формата : Big
Идентификатор кодека : A_AC3
Продолжительность : 1 ч. 41 м.
Вид битрейта : Постоянный
Битрейт : 192 Кбит/сек
Каналы : 2 канала
Расположение каналов : Front: L R
Частота : 48,0 КГц
Частота кадров : 31,250 кадров/сек (1536 spf)
Битовая глубина : 16 бит
Метод сжатия : С потерями
Размер потока : 139 Мбайт (1%)
Заголовок : Original AC3 2.0 192 kbps
Язык : English
Default : Нет
Forced : Нет

Аудио #3
Идентификатор : 4
Формат : AC-3
Формат/Информация : Audio Coding 3
Расширение режима : CM (complete main)
Параметр Endianness формата : Big
Идентификатор кодека : A_AC3
Продолжительность : 1 ч. 41 м.
Вид битрейта : Постоянный
Битрейт : 192 Кбит/сек
Каналы : 2 канала
Расположение каналов : Front: L R
Частота : 48,0 КГц
Частота кадров : 31,250 кадров/сек (1536 spf)
Битовая глубина : 16 бит
Метод сжатия : С потерями
Размер потока : 139 Мбайт (1%)
Заголовок : Commentary AC3 2.0 192 kbps
Язык : English
Default : Нет
Forced : Нет

Текст
Идентификатор : 5
Формат : UTF-8
Идентификатор кодека : S_TEXT/UTF8
Идентификатор кодека/Информация : UTF-8 Plain Text
Продолжительность : 1 ч. 37 м.
Битрейт : 90 бит/сек
Count of elements : 2077
Размер потока : 64,8 Кбайт (0%)
Язык : English
Default : Нет
Forced : Нет

Меню
00:00:00.000 : en:00:00:00.000
00:03:57.863 : en:00:03:57.863
00:10:04.479 : en:00:10:04.479
00:14:50.640 : en:00:14:50.640
00:20:02.368 : en:00:20:02.368
00:25:24.523 : en:00:25:24.523
00:29:34.815 : en:00:29:34.815
00:34:43.957 : en:00:34:43.957
00:40:15.246 : en:00:40:15.246
00:44:33.796 : en:00:44:33.796
00:50:19.183 : en:00:50:19.183
00:55:02.841 : en:00:55:02.841
01:00:15.529 : en:01:00:15.529
01:04:45.548 : en:01:04:45.548
01:10:36.649 : en:01:10:36.649
01:15:07.712 : en:01:15:07.712
01:20:02.256 : en:01:20:02.256
01:25:03.473 : en:01:25:03.473
01:30:10.655 : en:01:30:10.655
01:34:58.568 : en:01:34:58.568



Скачать Атомная.школа.3.Class.of.Nuke.'Em.High.Part.3.The.Good.the.Bad.and.the.Subhumanoid.(Эрик.Лузил).[1995.фантастика.боевик.комедия.BDRemux].[1080р].[AVO.(Антон.Алексеев)]+[Оригинал.Eng]+[Sub.Eng].torrent без регистрации
Золото ЗОЛОТАЯ РАЗДАЧА! СКАЧАННОЕ НЕ ЗАСЧИТЫВАЕТСЯ! Золото
Дата: Зарегистрирован   [ Тип: внутренний ] Как тут cкачать?
MAGNET ссылка
MAGNET ссылка


Скачать .torrent

85 KB

Статус: проверено DHT
Скачан: торрент - 18 раз, раздача полностью - 1 раз
Размер: 16,88 GB
Оценка:  - (Голосов: 0)
Поблагодарили: 0
Поделиться ссылкой на эту раздачу с друзьями:
В контактеFacebookОдноклассникиTwitterLivejournalМой МирLiveinternet
 

 
Показать сообщения:    


Вы не можете начинать темы
Вы не можете отвечать на сообщения
Вы не можете редактировать свои сообщения
Вы не можете удалять свои сообщения
Вы не можете голосовать в опросах
Вы не можете прикреплять файлы к сообщениям
Вы можете скачивать файлы