Loading...
Error

Скачать Грязная работа / Dirty Work (Боб Сагет) [1998, комедия, HDRip-AVC] [DVO (НТВ+)] торрент без регистрации

Статистика раздачи
Размер:  747 MB   |    Скачан:  10 раз
Сидов:  1  [  0 KB/s  ]  
 
 
 
Автор Сообщение

Marsianka

[] 

Информация о фильме
Название: Грязная работа
Оригинальное название: Dirty Work
Год выхода: 1998
Жанр: комедия
Режиссер: Боб Сагет
В ролях: Норм МакДональд, Арти Лэнг, Джек Уорден, Трейлор Ховард, Дон Риклз, Кристофер МакДональд, Чеви Чейз, Брэдли Рейд, Мэтт Стейнберг, Джозеф Сицилия

О фильме :
Два друга с детства никому не прощали обиды. Им удавалось очень изобретательно мстить своим обидчикам, устраивая разные гадости. Прошли годы, ребята выросли. Отец одного из них заболел, и требовалась пересадка сердца, а для этого нужно было достать 50 тыс. долларов. Так как, кроме гадостей, ребята ничего делать так и не научились, они открыли фирму, чтобы мстить за тех, кто не любил сам делать «грязную работу»...



Выпущено: Канада, США
Продолжительность: 01:21:34
Перевод: Профессиональный (двухголосый, закадровый) - НТВ+

Файл
Формат: MKV
Качество: HDRip-AVC
Видео: MPEG-4 AVC, 752x408, ~ 1202 Кбит/с
Аудио: AAC-LC, 2 ch, ~ 76 Кбит/с
Субтитры: Нет
Общее
Уникальный идентификатор : 282703096210925133510660942260712433195 (0xD4AEA2C62BF691A9FC027DB32A26E62B)
Полное имя : D:MOVIESDirty Work.1998.ExKinoRay.mkv
Формат : Matroska
Версия формата : Version 2
Размер файла : 747 Мбайт
Продолжительность : 1 ч. 21 м.
Общий поток : 1280 Кбит/сек
Дата кодирования : UTC 2018-02-08 13:55:07
Программа кодирования : mkvmerge v20.0.0 ('I Am The Sun') 64-bit
Библиотека кодирования : libebml v1.3.5 + libmatroska v1.4.8

Видео
Идентификатор : 1
Формат : AVC
Формат/Информация : Advanced Video Codec
Профиль формата : High@L4.1
Параметр CABAC формата : Да
Параметр RefFrames формата : 10 кадров
Идентификатор кодека : V_MPEG4/ISO/AVC
Продолжительность : 1 ч. 21 м.
Битрейт : 1202 Кбит/сек
Ширина : 752 пикселя
Высота : 408 пикселей
Соотношение сторон : 1,85:1
Режим частоты кадров : Постоянный
Частота кадров : 23,976 (24000/1001) кадра/сек
Цветовое пространство : YUV
Субдискретизация насыщенности : 4:2:0
Битовая глубина : 8 бит
Тип развёртки : Прогрессивная
Бит/(Пиксели*Кадры) : 0.163
Размер потока : 701 Мбайт (94%)
Библиотека кодирования : x264 core 152 r2851kMod ba24899
Настройки программы : cabac=1 / ref=10 / deblock=1:-3:-3 / analyse=0x3:0x133 / me=umh / subme=11 / psy=1 / fade_compensate=0.00 / psy_rd=1.00:0.10 / mixed_ref=1 / me_range=32 / chroma_me=1 / trellis=2 / 8x8dct=1 / cqm=0 / deadzone=21,11 / fast_pskip=0 / chroma_qp_offset=-3 / threads=6 / lookahead_threads=1 / sliced_threads=0 / nr=0 / decimate=0 / interlaced=0 / bluray_compat=0 / constrained_intra=0 / bframes=10 / b_pyramid=2 / b_adapt=2 / b_bias=0 / direct=3 / weightb=1 / open_gop=0 / weightp=2 / keyint=240 / keyint_min=23 / scenecut=40 / intra_refresh=0 / rc_lookahead=40 / rc=2pass / mbtree=1 / bitrate=1202 / ratetol=1.0 / qcomp=0.60 / qpmin=0 / qpmax=69 / qpstep=4 / cplxblur=20.0 / qblur=0.5 / vbv_maxrate=50000 / vbv_bufsize=62500 / nal_hrd=none / filler=0 / ip_ratio=1.40 / aq=3:1.00
Default : Да
Forced : Нет

Аудио
Идентификатор : 2
Формат : AAC
Формат/Информация : Advanced Audio Codec
Профиль формата : LC
Идентификатор кодека : A_AAC
Продолжительность : 1 ч. 21 м.
Битрейт : 76,0 Кбит/сек
Каналы : 2 канала
Расположение каналов : Front: L R
Частота : 48,0 КГц
Частота кадров : 46,875 кадров/сек (1024 SPF)
Метод сжатия : С потерями
Задержка видео : 9 мс.
Размер потока : 44,3 Мбайт (6%)
Язык : Russian
Default : Да
Forced : Нет
Релиз от:



Скачать Грязная.работа.Dirty.Work.(Боб.Сагет).[1998.комедия.HDRip-AVC].[DVO.(НТВ+)].torrent без регистрации
Золото ЗОЛОТАЯ РАЗДАЧА! СКАЧАННОЕ НЕ ЗАСЧИТЫВАЕТСЯ! Золото
Дата: Зарегистрирован   [ Тип: внутренний ] Как тут cкачать?
MAGNET ссылка
MAGNET ссылка


Скачать .torrent

16 KB

Статус: проверено DHT
Скачан: торрент - 10 раз, раздача полностью - 3 раз
Размер: 747 MB
Оценка:  - (Голосов: 0)
Поблагодарили: 0
Поделиться ссылкой на эту раздачу с друзьями:
В контактеFacebookОдноклассникиTwitterLivejournalМой МирLiveinternet
 

 
Показать сообщения:    


Вы не можете начинать темы
Вы не можете отвечать на сообщения
Вы не можете редактировать свои сообщения
Вы не можете удалять свои сообщения
Вы не можете голосовать в опросах
Вы не можете прикреплять файлы к сообщениям
Вы можете скачивать файлы