Loading...
Error

Скачать Ворон: Жестокое причастие / The Crow: Wicked Prayer (Лэнс Манджиа) [2005, ужасы, фэнтези, боевик, триллер, комедия, приключения, BDRip] [1080p] [MVO]+[DVO]+[AVO]+[VO]+[Eng]+[Sub Eng] торрент без регистрации

Статистика раздачи
Размер:  8,69 GB   |    Скачан:  14 раз
Сидов:  1  [  0 KB/s  ]  
 
 
 
Автор Сообщение

Marsianka

[] 

Название: Ворон: Жестокое причастие
Оригинальное название: The Crow: Wicked Prayer
Год выхода: 2005

Страна: США
Студия: Dimension Films, Edward R. Pressman Film, Jeff Most Productions
Продолжительность: 01:39:13
Жанр: ужасы, фэнтези, боевик, триллер, комедия, приключения

Режиссер: Лэнс Манджиа
В ролях: Эдвард Ферлонг, Тара Рид, Дэвид Бореаназ, Юдзи Окумото, Маркус Чонг, Тито Ортис, Роземберг Сальгадо, Эммануэль Шрики, Дэнни Трехо, Дэйв Баэс, ...

О фильме: Приказав своим последователям совершить ритуальное убийство Джимми Куэрво и его подруги, вожак банды сата­нистов Люк Крэш надеялся обрести бессмертие в обличье демона. Но Джимми восстал из мертвых в образе Ворона — «убийцы убийц» из древних индейских легенд, повелевающего сверхъестественными силами. Его душа пылает жаждой мщения…



Кодек: x264
Качество: BDRip 1080p
Видео: 1920x1080, 9948 kbps, 23,976 fps

- Профессиональный (многоголосый, закадровый) R5 от «CP-Digital»
- Профессиональный (двуголосый, закадровый) Немахов Юрий Геннадьевич
- Авторский (одноголосый, закадровый) Карповский Антон Сергеевич
- Субтитры
Аудио #1: AC-3, 6 ch, 448 kbps (Rus) - MVO R5 «CP-Digital»
Аудио #2: AC-3, 6 ch, 448 kbps (Rus) - AVO Немахов Юрий Геннадьевич (Yuriy Demigod)
Аудио #3: AC-3, 2 ch, 192 kbps (Rus) - VO Карповский Антон Сергеевич
Аудио #4: DTS, 6 ch, 1509 kbps (Eng)
Субтитры: Английские
Общее
Уникальный идентификатор : 182498085813164961834074313875144681463 (0x894BDA52CF90CD87BF8C44669849A7F7)
Полное имя : Ворон 4 Жестокое причастие (The Crow Wicked Prayer) 2005 BDRip 1080р.mkv
Формат : Matroska
Версия формата : Version 2
Размер файла : 8,69 Гбайт
Продолжительность : 1 ч. 39 м.
Общий поток : 12,5 Мбит/сек
Дата кодирования : UTC 2017-07-21 06:11:59
Программа кодирования : mkvmerge v4.0.0 ('The Stars were mine') сборка от Jun 6 2010 16:18:42
Библиотека кодирования : libebml v1.0.0 + libmatroska v1.0.0

Видео
Идентификатор : 1
Формат : AVC
Формат/Информация : Advanced Video Codec
Профиль формата : High@L4.1
Параметр CABAC формата : Да
Параметр ReFrames формата : 4 кадра
Идентификатор кодека : V_MPEG4/ISO/AVC
Продолжительность : 1 ч. 39 м.
Битрейт : 9948 Кбит/сек
Ширина : 1920 пикселей
Высота : 1080 пикселей
Соотношение сторон : 16:9
Режим частоты кадров : Постоянный
Частота кадров : 23,976 (24000/1001) кадра/сек
Цветовое пространство : YUV
Субдискретизация насыщенности : 4:2:0
Битовая глубина : 8 бит
Тип развёртки : Прогрессивная
Бит/(Пиксели*Кадры) : 0.200
Размер потока : 6,72 Гбайт (77%)
Библиотека кодирования : x264 core 140 r2377 1ca7bb9
Настройки программы : cabac=1 / ref=4 / deblock=1:0:0 / analyse=0x3:0x133 / me=umh / subme=8 / psy=1 / psy_rd=1.00:0.00 / mixed_ref=1 / me_range=16 / chroma_me=1 / trellis=1 / 8x8dct=1 / cqm=0 / deadzone=21,11 / fast_pskip=0 / chroma_qp_offset=-2 / threads=18 / lookahead_threads=3 / sliced_threads=0 / nr=0 / decimate=1 / interlaced=0 / bluray_compat=0 / constrained_intra=0 / bframes=3 / b_pyramid=2 / b_adapt=1 / b_bias=0 / direct=1 / weightb=1 / open_gop=0 / weightp=2 / keyint=250 / keyint_min=23 / scenecut=40 / intra_refresh=0 / rc_lookahead=40 / rc=2pass / mbtree=1 / bitrate=9948 / ratetol=1.0 / qcomp=0.60 / qpmin=0 / qpmax=69 / qpstep=4 / cplxblur=20.0 / qblur=0.5 / ip_ratio=1.40 / aq=1:1.00
Язык : English
Default : Нет
Forced : Нет

Аудио #1
Идентификатор : 2
Формат : AC-3
Формат/Информация : Audio Coding 3
Расширение режима : CM (complete main)
Параметр Endianness формата : Big
Идентификатор кодека : A_AC3
Продолжительность : 1 ч. 39 м.
Вид битрейта : Постоянный
Битрейт : 448 Кбит/сек
Каналы : 6 каналов
Расположение каналов : Front: L C R, Side: L R, LFE
Частота : 48,0 КГц
Частота кадров : 31,250 кадров/сек (1536 spf)
Метод сжатия : С потерями
Размер потока : 318 Мбайт (4%)
Заголовок : MVO R5 «CP-Digital»
Язык : Russian
Default : Нет
Forced : Нет

Аудио #2
Идентификатор : 3
Формат : AC-3
Формат/Информация : Audio Coding 3
Расширение режима : CM (complete main)
Параметр Endianness формата : Big
Идентификатор кодека : A_AC3
Продолжительность : 1 ч. 39 м.
Вид битрейта : Постоянный
Битрейт : 448 Кбит/сек
Каналы : 6 каналов
Расположение каналов : Front: L C R, Side: L R, LFE
Частота : 48,0 КГц
Частота кадров : 31,250 кадров/сек (1536 spf)
Метод сжатия : С потерями
Размер потока : 318 Мбайт (4%)
Заголовок : AVO Немахов Юрий Геннадьевич (Yuriy Demigod)
Язык : Russian
Default : Нет
Forced : Нет

Аудио #3
Идентификатор : 4
Формат : AC-3
Формат/Информация : Audio Coding 3
Расширение режима : CM (complete main)
Параметр Endianness формата : Big
Идентификатор кодека : A_AC3
Продолжительность : 1 ч. 39 м.
Вид битрейта : Постоянный
Битрейт : 192 Кбит/сек
Каналы : 2 канала
Расположение каналов : Front: L R
Частота : 48,0 КГц
Частота кадров : 31,250 кадров/сек (1536 spf)
Метод сжатия : С потерями
Размер потока : 136 Мбайт (2%)
Заголовок : VO Карповский Антон Сергеевич
Язык : Russian
Default : Нет
Forced : Нет

Аудио #4
Идентификатор : 5
Формат : DTS
Формат/Информация : Digital Theater Systems
Режим : 16
Параметр Endianness формата : Big
Идентификатор кодека : A_DTS
Продолжительность : 1 ч. 39 м.
Вид битрейта : Постоянный
Битрейт : 1509 Кбит/сек
Каналы : 6 каналов
Расположение каналов : Front: L C R, Side: L R, LFE
Частота : 48,0 КГц
Частота кадров : 93,750 кадра/сек (512 spf)
Битовая глубина : 24 бит
Метод сжатия : С потерями
Задержка видео : 11 мс.
Размер потока : 1,05 Гбайт (12%)
Язык : English
Default : Нет
Forced : Нет

Текст #1
Идентификатор : 6
Формат : UTF-8
Идентификатор кодека : S_TEXT/UTF8
Идентификатор кодека/Информация : UTF-8 Plain Text
Язык : Russian
Default : Нет
Forced : Нет

Текст #2
Идентификатор : 7
Формат : UTF-8
Идентификатор кодека : S_TEXT/UTF8
Идентификатор кодека/Информация : UTF-8 Plain Text
Язык : English
Default : Нет
Forced : Нет



Скачать Ворон.Жестокое.причастие.The.Crow.Wicked.Prayer.(Лэнс.Манджиа).[2005.ужасы.фэнтези.боевик.триллер.комедия.приключения.BDRip].[1080p].[MVO]+[DVO]+[AVO]+[VO]+[Eng]+[Sub.Eng].torrent без регистрации
Золото ЗОЛОТАЯ РАЗДАЧА! СКАЧАННОЕ НЕ ЗАСЧИТЫВАЕТСЯ! Золото
Дата: Зарегистрирован   [ Тип: внутренний ] Как тут cкачать?
MAGNET ссылка
MAGNET ссылка


Скачать .torrent

44 KB

Статус: проверено DHT
Скачан: торрент - 14 раз, раздача полностью - 1 раз
Размер: 8,69 GB
Оценка:  - (Голосов: 0)
Поблагодарили: 0
Поделиться ссылкой на эту раздачу с друзьями:
В контактеFacebookОдноклассникиTwitterLivejournalМой МирLiveinternet
 

 
Показать сообщения:    


Вы не можете начинать темы
Вы не можете отвечать на сообщения
Вы не можете редактировать свои сообщения
Вы не можете удалять свои сообщения
Вы не можете голосовать в опросах
Вы не можете прикреплять файлы к сообщениям
Вы можете скачивать файлы