Loading...
Error

Скачать Храбрый Нью-Джерси /Brave New Jersey (Джоди Ламберт) [2016, комедия, WEBRip] [720p] [DVO (HiWayGrope)] торрент без регистрации

Статистика раздачи
Размер:  2,83 GB   |    Скачан:  23 раза
Сидов:  1  [  0 KB/s  ]  
 
 
 
Автор Сообщение

МихаНЕзатор

[] 

Информация о фильме
Название: Храбрый Нью-Джерси
Оригинальное название: Brave New Jersey
Год выхода: 2016
Жанр: комедия
Режиссер: Джоди Ламберт

В ролях: Анна Кэмп, Хезер Бёрнс, Сэм Джагер, Тони Хейл, Эрика Александр, Эван Йоникит, Рэймонд Дж. Бэрри, Дэн Баккедаль, Грэйс Кауфман, Мэл Родригез и другие

О фильме: Фильм рассказывает о жителях Нью-Джерси, которые, прослушав радиопостановку романа «Война миров» Орсона Уэллса 1938 года, на самом деле поверили, что на территорию США вторглись марсиане.



Релиз от: HiWayGrope

Страна: США, BondIt, The Shot Clock
Продолжительность: 01:32:02
Перевод: Любительский (двухголосый закадровый) | HiWayGrope

Файл
Кодек: MPEG-4 AVC/H.264
Качество: WEBRip 720p
Видео: 1280x696, 23.976 fps, ~3929 kbps avg, 0.184 bit/pixel
Звук:
Аудио rus: AC3, 48 kHz, 6 ch, 384 Kbps
Субтитры: отсутствуют

АНОНСЫ ПОПУЛЯРНЫХ РАЗДАЧ

General
Unique ID : 204002653654416891885401628961077590569 (0x99797B60780FB6DFB5173D40981DFA29)
Complete name : E:Brave.New.Jersey.2017.720p.WEBRip.HiWayGropeBrave.New.Jersey.2016.720p.WEBRip.HiWayGrope.mkv
Format : Matroska
Format version : Version 4 / Version 2
File size : 2.83 GiB
Duration : 1h 32mn
Overall bit rate : 4 400 Kbps
Encoded date : UTC 2018-02-08 17:53:31
Writing application : mkvmerge v18.0.0 ('Apricity') 64-bit
Writing library : libebml v1.3.5 + libmatroska v1.4.8

Video
ID : 1
Format : AVC
Format/Info : Advanced Video Codec
Format profile : Main@L3.2
Format settings, CABAC : Yes
Format settings, ReFrames : 3 frames
Codec ID : V_MPEG4/ISO/AVC
Duration : 1h 32mn
Bit rate : 3 929 Kbps
Width : 1 280 pixels
Height : 696 pixels
Display aspect ratio : 1.85:1
Frame rate mode : Constant
Frame rate : 23.976 (24000/1001) fps
Standard : NTSC
Color space : YUV
Chroma subsampling : 4:2:0
Bit depth : 8 bits
Scan type : Progressive
Bits/(Pixel*Frame) : 0.184
Stream size : 2.53 GiB (89%)
Language : English
Default : Yes
Forced : No
Color range : Limited
Color primaries : BT.709
Transfer characteristics : BT.709
Matrix coefficients : BT.709

Audio
ID : 2
Format : AC-3
Format/Info : Audio Coding 3
Mode extension : CM (complete main)
Format settings, Endianness : Big
Codec ID : A_AC3
Duration : 1h 32mn
Bit rate mode : Constant
Bit rate : 384 Kbps
Channel(s) : 6 channels
Channel positions : Front: L C R, Side: L R, LFE
Sampling rate : 48.0 KHz
Frame rate : 31.250 fps (1536 spf)
Compression mode : Lossy
Stream size : 253 MiB (9%)
Language : Russian
Default : Yes
Forced : No



Скачать Храбрый.Нью-Джерси.Brave.New.Jersey.(Джоди.Ламберт).[2016.комедия.WEBRip].[720p].[DVO.(HiWayGrope)].torrent без регистрации
Золото ЗОЛОТАЯ РАЗДАЧА! СКАЧАННОЕ НЕ ЗАСЧИТЫВАЕТСЯ! Золото
Дата: Зарегистрирован   [ Тип: внутренний ] Как тут cкачать?
MAGNET ссылка
MAGNET ссылка


Скачать .torrent

15 KB

Статус: проверено DHT
Скачан: торрент - 23 раз, раздача полностью - 10 раз
Размер: 2,83 GB
Оценка:  - (Голосов: 0)
Поблагодарили: 2
Поделиться ссылкой на эту раздачу с друзьями:
В контактеFacebookОдноклассникиTwitterLivejournalМой МирLiveinternet
 

 
Показать сообщения:    


Вы не можете начинать темы
Вы не можете отвечать на сообщения
Вы не можете редактировать свои сообщения
Вы не можете удалять свои сообщения
Вы не можете голосовать в опросах
Вы не можете прикреплять файлы к сообщениям
Вы можете скачивать файлы