Loading...
Error

Скачать Храбрый Нью-Джерси /Brave New Jersey (Джоди Ламберт) [2016, комедия, WEBRip] [DVO (HiWayGrope)] торрент без регистрации

Статистика раздачи
Размер:  1,79 GB   |    Скачан:  26 раз
Сидов:  1  [  0 KB/s  ]  
 
 
 
Автор Сообщение

МихаНЕзатор

[] 

Информация о фильме
Название: Храбрый Нью-Джерси
Оригинальное название: Brave New Jersey
Год выхода: 2016
Жанр: Комедия
Режиссер: Джоди Ламберт

В ролях: Анна Кэмп, Хезер Бёрнс, Сэм Джагер, Тони Хейл, Эрика Александр, Эван Йоникит, Рэймонд Дж. Бэрри, Дэн Баккедаль, Грэйс Кауфман, Мэл Родригез и другие

О фильме: Фильм рассказывает о жителях Нью-Джерси, которые, прослушав радиопостановку романа «Война миров» Орсона Уэллса 1938 года, на самом деле поверили, что на территорию США вторглись марсиане.



Релиз от: HiWayGrope

Страна: США, BondIt, The Shot Clock
Продолжительность: 01:32:02
Перевод: Любительский (двухголосый закадровый) | HiWayGrope

Файл
Кодек: XviD
Качество: WEBRip
Видео: 720x400, 23.976 fps, ~2393 kbps avg, 0.35 bit/pixel
Звук:
Аудио rus: AC3, 48 kHz, 6 ch, 384 Kbps
Субтитры: отсутствуют

АНОНСЫ ПОПУЛЯРНЫХ РАЗДАЧ

General
Complete name : E:Brave.New.Jersey.2017.WEBRip.HiWayGropeBrave.New.Jersey.2016.WEBRip.HiWayGrope.avi
Format : AVI
Format/Info : Audio Video Interleave
File size : 1.79 GiB
Duration : 1h 32mn
Overall bit rate : 2 787 Kbps
Writing application : VirtualDubMod 1.5.10.3 (build 2550/release)
Writing library : VirtualDubMod build 2550/release

Video
ID : 0
Format : MPEG-4 Visual
Format profile : Advanced Simple@L5
Format settings, BVOP : 1
Format settings, QPel : No
Format settings, GMC : No warppoints
Format settings, Matrix : Default (MPEG)
Codec ID : XVID
Codec ID/Hint : XviD
Duration : 1h 32mn
Bit rate : 2 393 Kbps
Width : 720 pixels
Height : 400 pixels
Display aspect ratio : 16:9
Frame rate : 23.976 (23976/1000) fps
Color space : YUV
Chroma subsampling : 4:2:0
Bit depth : 8 bits
Scan type : Progressive
Compression mode : Lossy
Bits/(Pixel*Frame) : 0.347
Stream size : 1.54 GiB (86%)
Writing library : XviD 73

Audio
ID : 1
Format : AC-3
Format/Info : Audio Coding 3
Mode extension : CM (complete main)
Format settings, Endianness : Big
Codec ID : 2000
Duration : 1h 32mn
Bit rate mode : Constant
Bit rate : 384 Kbps
Channel(s) : 6 channels
Channel positions : Front: L C R, Side: L R, LFE
Sampling rate : 48.0 KHz
Frame rate : 31.250 fps (1536 spf)
Compression mode : Lossy
Stream size : 253 MiB (14%)
Alignment : Split accross interleaves
Interleave, duration : 42 ms (1.00 video frame)
Interleave, preload duration : 500 ms



Скачать Храбрый.Нью-Джерси.Brave.New.Jersey.(Джоди.Ламберт).[2016.комедия.WEBRip].[DVO.(HiWayGrope)].torrent без регистрации
Золото ЗОЛОТАЯ РАЗДАЧА! СКАЧАННОЕ НЕ ЗАСЧИТЫВАЕТСЯ! Золото
Дата: Зарегистрирован   [ Тип: внутренний ] Как тут cкачать?
MAGNET ссылка
MAGNET ссылка


Скачать .torrent

19 KB

Статус: проверено DHT
Скачан: торрент - 26 раз, раздача полностью - 17 раз
Размер: 1,79 GB
Оценка:  5 (Голосов: 1)
Поблагодарили: 4
Поделиться ссылкой на эту раздачу с друзьями:
В контактеFacebookОдноклассникиTwitterLivejournalМой МирLiveinternet
 

 
Показать сообщения:    


Вы не можете начинать темы
Вы не можете отвечать на сообщения
Вы не можете редактировать свои сообщения
Вы не можете удалять свои сообщения
Вы не можете голосовать в опросах
Вы не можете прикреплять файлы к сообщениям
Вы можете скачивать файлы