Loading...
Error

Скачать Стена / The Wall (Даг Лайман) [2017, триллер, драма, военный, HDRip] [720p] [MVO (GreenРай Studio)] торрент без регистрации

Статистика раздачи
Размер:  4,39 GB   |    Скачан:  43 раза
Сидов:  1  [  0 KB/s  ]  
 
 
 
Автор Сообщение

МихаНЕзатор

[] 

Информация о фильме
Название: Стена
Оригинальное название: The Wall
Год выпуска: 2017
Жанр: Триллер, драма, военный
Режиссер: Даг Лайман

В ролях: Аарон Тейлор-Джонсон, Джон Сина, Спенсер Томас, Лэйт Накли

О фильме: Во время войны в Ираке двое американских военных (Аарон Тейлор-Джонсон и Джон Сина) оказываются засечены вражеским снайпером. Однако одному из солдат удается поймать радиочастоту иракца. Между противниками находится лишь полуразрушенная бетонная стена, поэтому исход битвы зависит не столько от физической силы, сколько от находчивости и силы воли вражеских сторон.



Внимание,имеется видео и аудио реклама от спонсора показа

Страна: США
Студия: Amazon Studios, Big Indie Pictures, Picrow
Продолжительность: 01:30:19
Перевод: Любительский многоголосый [GreenРай Studio]

Файл
Кодек: x264
Качество: HDRip 720p
Видео: 6178 Кбит/с, 1280x536, 23.976 fps
Звук: Русский (AC3, 2 ch, 640 Кбит/с)

АНОНСЫ ПОПУЛЯРНЫХ РАЗДАЧ

General
Unique ID : 186793912381930821132975285764675521513 (0x8C8732ECFB6E1E0EA838E177C6AACBE9)
Complete name : E:workThe.Wall.2017.P.BDRip.720p.mkv
Format : Matroska
Format version : Version 4 / Version 2
File size : 4.39 GiB
Duration : 1 h 30 min
Overall bit rate : 6 956 kb/s
Encoded date : UTC 2018-02-07 19:53:23
Writing application : mkvmerge v8.3.0 ('Over the Horizon') 64bit
Writing library : libebml v1.3.1 + libmatroska v1.4.2

Video
ID : 1
Format : AVC
Format/Info : Advanced Video Codec
Format profile : High@L3.1
Format settings : CABAC / 4 Ref Frames
Format settings, CABAC : Yes
Format settings, ReFrames : 4 frames
Codec ID : V_MPEG4/ISO/AVC
Duration : 1 h 30 min
Bit rate : 6 314 kb/s
Width : 1 280 pixels
Height : 536 pixels
Display aspect ratio : 2.40:1
Frame rate mode : Constant
Frame rate : 23.976 FPS
Color space : YUV
Chroma subsampling : 4:2:0
Bit depth : 8 bits
Scan type : Progressive
Bits/(Pixel*Frame) : 0.384
Stream size : 3.99 GiB (91%)
Writing library : x264 core 146 r2538 121396c
Encoding settings : cabac=1 / ref=1 / deblock=1:-1:-1 / analyse=0x3:0x113 / me=hex / subme=2 / psy=1 / psy_rd=1.00:0.20 / mixed_ref=0 / me_range=16 / chroma_me=1 / trellis=0 / 8x8dct=1 / cqm=0 / deadzone=21,11 / fast_pskip=1 / chroma_qp_offset=0 / threads=18 / lookahead_threads=4 / sliced_threads=0 / nr=0 / decimate=1 / interlaced=0 / bluray_compat=0 / constrained_intra=0 / bframes=3 / b_pyramid=2 / b_adapt=1 / b_bias=0 / direct=1 / weightb=1 / open_gop=0 / weightp=1 / keyint=250 / keyint_min=23 / scenecut=40 / intra_refresh=0 / rc_lookahead=10 / rc=crf / mbtree=1 / crf=13.2 / qcomp=0.60 / qpmin=0 / qpmax=69 / qpstep=4 / ip_ratio=1.40 / aq=1:1.00
Language : English
Default : Yes
Forced : No

Audio
ID : 2
Format : AC-3
Format/Info : Audio Coding 3
Codec ID : A_AC3
Duration : 1 h 30 min
Bit rate mode : Constant
Bit rate : 640 kb/s
Channel(s) : 2 channels
Channel positions : Front: L R
Sampling rate : 48.0 kHz
Frame rate : 31.250 FPS (1536 SPF)
Bit depth : 16 bits
Compression mode : Lossy
Stream size : 414 MiB (9%)
Service kind : Complete Main
Default : Yes
Forced : No

Состав дикторов :Анастасия Гайдаржи, Илья Кочетков, Андрей Данилко
Руководитель проекта и координатор: Евгений Овчаренко
Организатор и координатор: Никита Марков
Пиар менеджер студии: Гриша Чернозатонский
Техническая поддержка: Александр Методий



Скачать Стена.The.Wall.(Даг.Лайман).[2017.триллер.драма.военный.HDRip].[720p].[MVO.(GreenРай.Studio)].torrent без регистрации
Золото ЗОЛОТАЯ РАЗДАЧА! СКАЧАННОЕ НЕ ЗАСЧИТЫВАЕТСЯ! Золото
Дата: Зарегистрирован   [ Тип: внутренний ] Как тут cкачать?
MAGNET ссылка
MAGNET ссылка


Скачать .torrent

23 KB

Статус: проверено DHT
Скачан: торрент - 43 раз, раздача полностью - 141 раз
Размер: 4,39 GB
Оценка:  - (Голосов: 0)
Поблагодарили: 3
Поделиться ссылкой на эту раздачу с друзьями:
В контактеFacebookОдноклассникиTwitterLivejournalМой МирLiveinternet
 

 
Показать сообщения:    


Вы не можете начинать темы
Вы не можете отвечать на сообщения
Вы не можете редактировать свои сообщения
Вы не можете удалять свои сообщения
Вы не можете голосовать в опросах
Вы не можете прикреплять файлы к сообщениям
Вы можете скачивать файлы