Loading...
Error

Скачать Большая игра / Molly's Game (Аарон Соркин) [2017, драма, криминал, биография, DVDScr] [DVO (HiWayGrope)] торрент без регистрации

Статистика раздачи
Размер:  1,52 GB   |    Скачан:  60 раз
Сидов:  2  [  0 KB/s  ]  
 
 
 
Автор Сообщение

МихаНЕзатор

[] 

Информация о фильме
Название: Большая игра
Оригинальное название: Molly's Game
Год выхода: 2017
Жанр: драма, биография
Режиссер: Аарон Соркин

В ролях: Джессика Честейн, Идрис Эльба, Кевин Костнер, Майкл Сера, Джереми Стронг, Крис О Дауд, Дж.С. МакКензи, Брайан Д Арси Джеймс, Билл Кэмп, Грэм Грин и другие

О фильме: Когда Блум переехала из Колорадо в Лос-Анджелес, она ничего не знала о покере. За плечами были несостоявшаяся карьера олимпийской чемпионки, зависть к братьям, достигшим успеха в спорте, проблемные отношения с отцом. Она устроилась на работу в офис, и начальник, близкий к голливудским знаменитостям, поручил ей организовать покерный клуб. Постепенно Молли втянулась. Ей нравилось находиться в окружении богатых и наделенных властью мужчин, имея собственную власть над ними. Вскоре Блум организовала свой клуб. В него, если верить ее мемуарам, приходили играть Бен Аффлек, Леонардо ДиКаприо и Тоби Магуайр. Через несколько лет обстоятельства вынудили Молли переехать с нелегальным клубом в Нью-Йорк, где ставки выросли, а в игру включились представители русской мафии. Вместе с ними Молли и повязали агенты ФБР в 2013 году. Однако девушке удалось доказать, что она лишь была организатором игры в покер, а к мафии и отмыванию денег не имела никакого отношения.



Релиз от: HiWayGrope

Страна: США, Китай, STX Entertainment, Huayi Brothers Pictures, The Mark Gordon Company
Продолжительность: 02:20:23
Перевод: Любительский (двухголосый закадровый) | HiWayGrope

Файл
Кодек: XviD
Качество: DVDScr
Видео: 720x288, 30 fps, ~1350 kbps avg, 0.22 bit/pixel
Звук:
Аудио rus: AC3, 48 kHz, 2 ch, 192 Kbps
Субтитры: отсутствуют

АНОНСЫ ПОПУЛЯРНЫХ РАЗДАЧ

General
Complete name : E:Mollys.Game.2017.DVDScr.HiWayGropeMollys.Game.2017.DVDScr.HiWayGrope.avi
Format : AVI
Format/Info : Audio Video Interleave
File size : 1.52 GiB
Duration : 2h 20mn
Overall bit rate : 1 554 Kbps
Writing application : VirtualDubMod 1.5.10.3 (build 2550/release)
Writing library : VirtualDubMod build 2550/release

Video
ID : 0
Format : MPEG-4 Visual
Format profile : Advanced Simple@L5
Format settings, BVOP : 1
Format settings, QPel : No
Format settings, GMC : No warppoints
Format settings, Matrix : Default (MPEG)
Codec ID : XVID
Codec ID/Hint : XviD
Duration : 2h 20mn
Bit rate : 1 350 Kbps
Width : 720 pixels
Height : 288 pixels
Display aspect ratio : 2.500
Frame rate : 29.970 (29970/1000) fps
Color space : YUV
Chroma subsampling : 4:2:0
Bit depth : 8 bits
Scan type : Progressive
Compression mode : Lossy
Bits/(Pixel*Frame) : 0.217
Stream size : 1.32 GiB (87%)
Writing library : XviD 73

Audio
ID : 1
Format : AC-3
Format/Info : Audio Coding 3
Mode extension : CM (complete main)
Format settings, Endianness : Big
Codec ID : 2000
Duration : 2h 20mn
Bit rate mode : Constant
Bit rate : 192 Kbps
Channel(s) : 2 channels
Channel positions : Front: L R
Sampling rate : 48.0 KHz
Frame rate : 31.250 fps (1536 spf)
Compression mode : Lossy
Stream size : 193 MiB (12%)
Alignment : Split accross interleaves
Interleave, duration : 33 ms (1.00 video frame)
Interleave, preload duration : 500 ms



Скачать Большая.игра.Molly's.Game.(Аарон.Соркин).[2017.драма.криминал.биография.DVDScr].[DVO.(HiWayGrope)].torrent без регистрации
Золото ЗОЛОТАЯ РАЗДАЧА! СКАЧАННОЕ НЕ ЗАСЧИТЫВАЕТСЯ! Золото
Дата: Зарегистрирован   [ Тип: внутренний ] Как тут cкачать?
MAGNET ссылка
MAGNET ссылка


Скачать .torrent

16 KB

Статус: проверено DHT
Скачан: торрент - 60 раз, раздача полностью - 101 раз
Размер: 1,52 GB
Оценка:  - (Голосов: 0)
Поблагодарили: 3
Поделиться ссылкой на эту раздачу с друзьями:
В контактеFacebookОдноклассникиTwitterLivejournalМой МирLiveinternet
 

 
Показать сообщения:    


Вы не можете начинать темы
Вы не можете отвечать на сообщения
Вы не можете редактировать свои сообщения
Вы не можете удалять свои сообщения
Вы не можете голосовать в опросах
Вы не можете прикреплять файлы к сообщениям
Вы можете скачивать файлы