Loading...
Error

Скачать Дело храбрых / Only the Brave (Джозеф Косински) [2017, драма, биография, HDRip] [MVO (HDrezka Studio)] торрент без регистрации

Статистика раздачи
Размер:  1,46 GB   |    Скачан:  49 раз
Сидов:  140  [  0 KB/s  ]  
 
 
 
Автор Сообщение

МихаНЕзатор

[] 

Информация о фильме
Название: Дело храбрых
Оригинальное название: Only the Brave
Год выпуска: 2017
Страна: США
Жанр: драма, биография
Режиссер: Джозеф Косински

В ролях: Джош Бролин (Eric Marsh), Майлз Теллер (Brendan McDonough), Джефф Бриджес (Duane Steinbrink), Джеймс Бэдж Дэйл (Jesse Steed), Тейлор Китч (Christopher MacKenzie), Дженнифер Коннелли (Amanda Marsh), Скотт Хэйз (Clayton Whitted), Алекс Расселл (Andrew Ashcraft), Бен Харди (Wade Parker), Натали Холл (Natalie Johnson), Энди МакДауэлл (Marvel Steinbrink), Джофф Стульц (Travis Turbyfill)

Описание: История о команде пожарных под названием Granite Mountain Hotshots, столкнувшихся в Аризоне с одним из самых смертоносных пожаров в истории.


MPAA: PG-13 - Детям до 13 лет просмотр не желателен

Перевод: Любительский многоголосый [HDrezka Studio]
Примечание: Релиз без рекламы
Продолжительность: 02:14:03

Качество: HDRip
Формат: AVI
Видео: XviD, 720x304 (2.35:1), 1357 kbps, 23,976 fps, 0,259 bpp
Аудио: AC3 / 2.0 / 48 kHz / 192 kbps /

АНОНСЫ ПОПУЛЯРНЫХ РАЗДАЧ

General
Complete name : E:Only.the.Brave.2017.HDRip.avi
Format : AVI
Format/Info : Audio Video Interleave
File size : 1.46 GiB
Duration : 2 h 14 min
Overall bit rate : 1 559 kb/s
Writing application : VirtualDubModRus 1.5.10.2 (build 2542/release)
Writing library : VirtualDubMod build 2542/release

Video
ID : 0
Format : MPEG-4 Visual
Format profile : Advanced Simple@L5
Format settings, BVOP : 2
Format settings, QPel : No
Format settings, GMC : No warppoints
Format settings, Matrix : Custom
Codec ID : XVID
Codec ID/Hint : XviD
Duration : 2 h 14 min
Bit rate : 1 358 kb/s
Width : 720 pixels
Height : 304 pixels
Display aspect ratio : 2.35:1
Frame rate : 23.976 (24000/1001) FPS
Color space : YUV
Chroma subsampling : 4:2:0
Bit depth : 8 bits
Scan type : Progressive
Compression mode : Lossy
Bits/(Pixel*Frame) : 0.259
Stream size : 1.27 GiB (87%)
Writing library : XviD 73

Audio
ID : 1
Format : AC-3
Format/Info : Audio Coding 3
Mode extension : CM (complete main)
Format settings, Endianness : Big
Codec ID : 2000
Duration : 2 h 14 min
Bit rate mode : Constant
Bit rate : 192 kb/s
Channel(s) : 2 channels
Channel positions : Front: L R
Sampling rate : 48.0 kHz
Frame rate : 31.250 FPS (1536 spf)
Compression mode : Lossy
Stream size : 184 MiB (12%)
Alignment : Split accross interleaves
Interleave, duration : 42 ms (1.00 video frame)
Interleave, preload duration : 500 ms



Скачать Дело.храбрых.Only.the.Brave.(Джозеф.Косински).[2017.драма.биография.HDRip].[MVO.(HDrezka.Studio)].torrent без регистрации
Золото ЗОЛОТАЯ РАЗДАЧА! СКАЧАННОЕ НЕ ЗАСЧИТЫВАЕТСЯ! Золото
Дата: Зарегистрирован   [ Тип: внешний ] Как тут cкачать?
MAGNET ссылка
MAGNET ссылка


Скачать .torrent

16 KB

Статус: проверено DHT
Скачан: торрент - 49 раз, раздача полностью - 56 раз
Размер: 1,46 GB
Оценка:  - (Голосов: 0)
Поблагодарили: 4
Поделиться ссылкой на эту раздачу с друзьями:
В контактеFacebookОдноклассникиTwitterLivejournalМой МирLiveinternet
 

 
Показать сообщения:    


Вы не можете начинать темы
Вы не можете отвечать на сообщения
Вы не можете редактировать свои сообщения
Вы не можете удалять свои сообщения
Вы не можете голосовать в опросах
Вы не можете прикреплять файлы к сообщениям
Вы можете скачивать файлы