Loading...
Error

Скачать Дело храбрых / Only the Brave (Джозеф Косински) [2017, драма, биография, BDRip] [1080p] [MVO (HDrezka Studio)]+[Eng]+[Sub Rus, Eng] торрент без регистрации

Статистика раздачи
Размер:  13,95 GB   |    Скачан:  47 раз
Сидов:  1  [  0 KB/s  ]  
 
 
 
Автор Сообщение

МихаНЕзатор

[] 

Информация о фильме
Название: Дело храбрых
Оригинальное название: Only the Brave
Год выпуска: 2017
Страна: США
Жанр: драма, биография
Режиссер: Джозеф Косински

В ролях: Джош Бролин (Eric Marsh), Майлз Теллер (Brendan McDonough), Джефф Бриджес (Duane Steinbrink), Джеймс Бэдж Дэйл (Jesse Steed), Тейлор Китч (Christopher MacKenzie), Дженнифер Коннелли (Amanda Marsh), Скотт Хэйз (Clayton Whitted), Алекс Расселл (Andrew Ashcraft), Бен Харди (Wade Parker), Натали Холл (Natalie Johnson), Энди МакДауэлл (Marvel Steinbrink), Джофф Стульц (Travis Turbyfill)

Описание: История о команде пожарных под названием Granite Mountain Hotshots, столкнувшихся в Аризоне с одним из самых смертоносных пожаров в истории.


MPAA: PG-13 - Детям до 13 лет просмотр не желателен

Продолжительность: 02:14:03
Перевод: Любительский многоголосый [HDrezka Studio]
Примечание: Релиз без рекламы
Субтитры: русские (Full [by S1LveR]), английские, английские (SDH)

Качество: BDRip 1080p
Формат: MKV
Видео: AVC, 1920x804 (2.40:1), 13200 kbps, 23,976 fps, 0,357 bpp
Аудио №1: русский / AC3 / 2.0 / 48 kHz / 192 kbps / |MVO|
Аудио №2: английский / DTS / 5.1 / 48 kHz / 1509 kbps / 24 bit
Навигация по главам: есть

АНОНСЫ ПОПУЛЯРНЫХ РАЗДАЧ

General
Unique ID : 44393062412332093088937267989755728793 (0x2165CAF666E9A631A26AA4F06B3C1399)
Complete name : E:Only.the.Brave.2017.BDRip 1080p.MVO.mkv
Format : Matroska
Format version : Version 4 / Version 2
File size : 13.9 GiB
Duration : 2 h 14 min
Overall bit rate : 14.9 Mb/s
Movie name : Only the Brave (2017) BDRip 1080p MVO [HDrezka Studio]
Encoded date : UTC 2018-02-09 13:08:32
Writing application : mkvmerge v20.0.0 ('I Am The Sun') 64-bit
Writing library : libebml v1.3.5 + libmatroska v1.4.8

Video
ID : 1
Format : AVC
Format/Info : Advanced Video Codec
Format profile : High@L4.1
Format settings, CABAC : Yes
Format settings, ReFrames : 5 frames
Codec ID : V_MPEG4/ISO/AVC
Duration : 2 h 14 min
Bit rate : 13.2 Mb/s
Width : 1 920 pixels
Height : 804 pixels
Display aspect ratio : 2.40:1
Frame rate mode : Constant
Frame rate : 23.976 (24000/1001) FPS
Color space : YUV
Chroma subsampling : 4:2:0
Bit depth : 8 bits
Scan type : Progressive
Bits/(Pixel*Frame) : 0.357
Stream size : 12.4 GiB (89%)
Writing library : x264 core 152 r2851kMod ba24899
Encoding settings : cabac=1 / ref=5 / deblock=1:-3:-3 / analyse=0x3:0x133 / me=umh / subme=11 / psy=1 / fade_compensate=0.00 / psy_rd=1.05:0.00 / mixed_ref=1 / me_range=32 / chroma_me=1 / trellis=2 / 8x8dct=1 / cqm=0 / deadzone=21,11 / fast_pskip=0 / chroma_qp_offset=-2 / threads=12 / lookahead_threads=2 / sliced_threads=0 / slices=4 / nr=0 / decimate=0 / interlaced=0 / bluray_compat=0 / constrained_intra=0 / bframes=8 / b_pyramid=2 / b_adapt=2 / b_bias=0 / direct=3 / weightb=1 / open_gop=0 / weightp=2 / keyint=250 / keyint_min=23 / scenecut=40 / intra_refresh=0 / rc_lookahead=40 / rc=2pass / mbtree=0 / bitrate=13200 / ratetol=1.0 / qcomp=0.60 / qpmin=0 / qpmax=69 / qpstep=4 / cplxblur=20.0 / qblur=0.5 / vbv_maxrate=62500 / vbv_bufsize=78125 / nal_hrd=none / filler=0 / ip_ratio=1.30 / pb_ratio=1.25 / aq=3:0.80 / zones=1,2164,b=1.5/19192,264117,b=1.3/69570,71158,b=1.5/74073,76939,b=1.4/96190,98651,b=1.3/101760,105981,b=1.5/121100,141490,b=1.4/168400,171000,b=1.15
Language : English
Default : Yes
Forced : No
Color range : Limited
Matrix coefficients : BT.709

Audio #1
ID : 2
Format : AC-3
Format/Info : Audio Coding 3
Mode extension : CM (complete main)
Format settings, Endianness : Big
Codec ID : A_AC3
Duration : 2 h 14 min
Bit rate mode : Constant
Bit rate : 192 kb/s
Channel(s) : 2 channels
Channel positions : Front: L R
Sampling rate : 48.0 kHz
Frame rate : 31.250 FPS (1536 spf)
Compression mode : Lossy
Stream size : 184 MiB (1%)
Title : MVO | HDrezka Studio
Language : Russian
Default : Yes
Forced : No

Audio #2
ID : 3
Format : DTS
Format/Info : Digital Theater Systems
Mode : 16
Format settings, Endianness : Big
Codec ID : A_DTS
Duration : 2 h 14 min
Bit rate mode : Constant
Bit rate : 1 509 kb/s
Channel(s) : 6 channels
Channel positions : Front: L C R, Side: L R, LFE
Sampling rate : 48.0 kHz
Frame rate : 93.750 FPS (512 spf)
Bit depth : 24 bits
Compression mode : Lossy
Stream size : 1.41 GiB (10%)
Title : Original
Language : English
Default : No
Forced : No

Text #1
ID : 4
Format : UTF-8
Codec ID : S_TEXT/UTF8
Codec ID/Info : UTF-8 Plain Text
Duration : 2 h 3 min
Bit rate : 89 b/s
Count of elements : 1888
Stream size : 80.8 KiB (0%)
Title : Full
Language : Russian
Default : No
Forced : No

Text #2
ID : 5
Format : UTF-8
Codec ID : S_TEXT/UTF8
Codec ID/Info : UTF-8 Plain Text
Duration : 2 h 4 min
Bit rate : 63 b/s
Count of elements : 2067
Stream size : 58.1 KiB (0%)
Language : English
Default : No
Forced : No

Text #3
ID : 6
Format : UTF-8
Codec ID : S_TEXT/UTF8
Codec ID/Info : UTF-8 Plain Text
Duration : 2 h 9 min
Bit rate : 72 b/s
Count of elements : 2273
Stream size : 68.9 KiB (0%)
Title : SDH
Language : English
Default : No
Forced : No

Menu
00:00:00.000 : en:Chapter 1
00:06:39.107 : en:Chapter 2
00:16:14.891 : en:Chapter 3
00:26:30.297 : en:Chapter 4
00:34:26.856 : en:Chapter 5
00:43:54.298 : en:Chapter 6
00:51:29.336 : en:Chapter 7
00:59:18.430 : en:Chapter 8
01:08:27.312 : en:Chapter 9
01:16:19.366 : en:Chapter 10
01:24:16.468 : en:Chapter 11
01:32:51.524 : en:Chapter 12
01:39:07.567 : en:Chapter 13
01:45:11.972 : en:Chapter 14
01:52:54.935 : en:Chapter 15
02:02:04.776 : en:Chapter 16



Скачать Дело.храбрых.Only.the.Brave.(Джозеф.Косински).[2017.драма.биография.BDRip].[1080p].[MVO.(HDrezka.Studio)]+[Eng]+[Sub.Rus.Eng].torrent без регистрации
Золото ЗОЛОТАЯ РАЗДАЧА! СКАЧАННОЕ НЕ ЗАСЧИТЫВАЕТСЯ! Золото
Дата: Зарегистрирован   [ Тип: внутренний ] Как тут cкачать?
MAGNET ссылка
MAGNET ссылка


Скачать .torrent

71 KB

Статус: проверено DHT
Скачан: торрент - 47 раз, раздача полностью - 69 раз
Размер: 13,95 GB
Оценка:  - (Голосов: 0)
Поблагодарили: 2
Поделиться ссылкой на эту раздачу с друзьями:
В контактеFacebookОдноклассникиTwitterLivejournalМой МирLiveinternet
 

 
Показать сообщения:    


Вы не можете начинать темы
Вы не можете отвечать на сообщения
Вы не можете редактировать свои сообщения
Вы не можете удалять свои сообщения
Вы не можете голосовать в опросах
Вы не можете прикреплять файлы к сообщениям
Вы можете скачивать файлы