Loading...
Error

Скачать Иней / Frost (Шарунас Бартас) [2017, драма, WEBRip] [720p] [MVO (GreenРай Studio)] торрент без регистрации

Статистика раздачи
Размер:  3,27 GB   |    Скачан:  25 раз
Сидов:  1  [  0 KB/s  ]  
 
 
 
Автор Сообщение

МихаНЕзатор

[] 

Информация о фильме
Название: Иней
Оригинальное название: Frost
Год выпуска: 2017
Жанр: драма
Режиссер: Шарунас Бартас

В ролях: Анджей Хыра, Ванесса Паради, Борис Абрамов, Вероника Розати

О фильме: Рохас должен помочь другу перевести гуманитарную помощь из Литвы в село Карловка, расположенное около самой гущи боевых действий между донецкими сепаратистами и украинской армией. Это так называемая серая зона — нейтральная полоса для противоборствующих сил. В путь он отправляется на фургоне, прихватив с собой девушку Ингу, не говорящую по-русски. В дороге они встречают французских журналистов. Усталая, недовольная Рохасом Инга изменяет ему со связным, курирующим доставку — неопрятным мужчиной за сорок с редеющими волосами. Но это лишь маленькая размолвка перед действительно опасным этапом их путешествия, ведь скоро они приблизятся к расположению украинской армии.



Внимание,имеется видео и аудио реклама от спонсора показа

Страна: Литва, Франция, Украина, Польша
Студия: Studio Kinema, KinoElektron
Продолжительность: 01:55:37
Перевод: Любительский многоголосый [GreenРай Studio]

Файл
Кодек: x.264
Качество: WEBRip 720p
Видео: 4000 Кбит/с, 1280x608, 23.976 fps
Звук: Русский (AC3, 2 ch, 192 Кбит/с)

АНОНСЫ ПОПУЛЯРНЫХ РАЗДАЧ
General
Unique ID : 180678012021289881816370393297642707704 (0x87ED51C1DDC9DCC38BC7414F618DDAF8)
Complete name : E:workFrost.2017.P.WEBRip.720p.mkv
Format : Matroska
Format version : Version 4 / Version 2
File size : 3.27 GiB
Duration : 1 h 55 min
Overall bit rate mode : Constant
Overall bit rate : 4 047 kb/s
Encoded date : UTC 2018-02-07 21:08:10
Writing application : mkvmerge v8.3.0 ('Over the Horizon') 64bit
Writing library : libebml v1.3.1 + libmatroska v1.4.2

Video
ID : 1
Format : AVC
Format/Info : Advanced Video Codec
Format profile : Main@L3.1
Format settings : CABAC / 3 Ref Frames
Format settings, CABAC : Yes
Format settings, ReFrames : 3 frames
Codec ID : V_MPEG4/ISO/AVC
Duration : 1 h 55 min
Bit rate mode : Constant
Bit rate : 4 000 kb/s
Width : 1 280 pixels
Height : 608 pixels
Display aspect ratio : 2.105
Frame rate mode : Constant
Frame rate : 25.000 FPS
Standard : NTSC
Color space : YUV
Chroma subsampling : 4:2:0
Bit depth : 8 bits
Scan type : Progressive
Bits/(Pixel*Frame) : 0.206
Stream size : 3.11 GiB (95%)
Language : English
Default : Yes
Forced : No
Color range : Limited

Audio
ID : 2
Format : AC-3
Format/Info : Audio Coding 3
Codec ID : A_AC3
Duration : 1 h 55 min
Bit rate mode : Constant
Bit rate : 192 kb/s
Channel(s) : 2 channels
Channel positions : Front: L R
Sampling rate : 48.0 kHz
Frame rate : 31.250 FPS (1536 SPF)
Bit depth : 16 bits
Compression mode : Lossy
Stream size : 159 MiB (5%)
Service kind : Complete Main
Default : Yes
Forced : No

Состав дикторов: Нана Саркисян, Александр Женихов, Андрей Данилко
Руководитель проекта и координатор: Евгений Овчаренко
Организатор и координатор: Никита Марков
Пиар менеджер студии: Гриша Чернозатонский
Техническая поддержка: Александр Методий



Скачать Иней.Frost.(Шарунас.Бартас).[2017.драма.WEBRip].[720p].[MVO.(GreenРай.Studio)].torrent без регистрации
Золото ЗОЛОТАЯ РАЗДАЧА! СКАЧАННОЕ НЕ ЗАСЧИТЫВАЕТСЯ! Золото
Дата: Зарегистрирован   [ Тип: внутренний ] Как тут cкачать?
MAGNET ссылка
MAGNET ссылка


Скачать .torrent

17 KB

Статус: проверено DHT
Скачан: торрент - 25 раз, раздача полностью - 24 раз
Размер: 3,27 GB
Оценка:  - (Голосов: 0)
Поблагодарили: 2
Поделиться ссылкой на эту раздачу с друзьями:
В контактеFacebookОдноклассникиTwitterLivejournalМой МирLiveinternet
 

 
Показать сообщения:    


Вы не можете начинать темы
Вы не можете отвечать на сообщения
Вы не можете редактировать свои сообщения
Вы не можете удалять свои сообщения
Вы не можете голосовать в опросах
Вы не можете прикреплять файлы к сообщениям
Вы можете скачивать файлы