Loading...
Error

Скачать Женись на мне, чувак / Épouse-moi mon pote (Тарек Будали) [2017, комедия, приключения, WEB-DL] [1080p] [Dub Rus, Ukr (лицензия iTunes)] торрент без регистрации

Статистика раздачи
Размер:  3,62 GB   |    Скачан:  100 раз
Сидов:  2  [  0 KB/s  ]  
 
 
 
Автор Сообщение

МихаНЕзатор

[] 



Информация о фильме
Название: Женись на мне, чувак
Оригинальное название: Épouse-moi mon pote
Год выхода: 2017
Жанр: Комедия, приключения
Режиссер: Тарек Будали

В ролях: Тарек Будали, Филипп Лашо, Шарлотта Габрис, Анди, Давид Марсе, Жюльен Аррути, Байа Белаль, Филипп Дюкен, Зинедин Суалем, Дуду Маста

О фильме:

Единственный шанс для провалившего экзамен студента остаться в Париже — это фиктивный брак. Однако, найти невесту так быстро практически невозможно. И тогда на помощь приходит лучший друг.



Страна: Франция
Студия: Axel Films, Canal+ [fr]
Продолжительность: 01:27:59
Перевод: Дублированный | iTunes

Качество: WEB-DL 1080p
Видео: MPEG-4 AVC, 1920x1038, 5120 Kbit/s, 25.000 fps
Звук:
Аудио #01: 48 kHz, AC3, 5.1, 384 Kbps | Дублированный | iTunes | RUS |
Аудио #02: 48 kHz, AC3, 5.1, 384 Kbps | Дублированный | iTunes | UKR |

АНОНСЫ ПОПУЛЯРНЫХ РАЗДАЧ
General
Unique ID : 90600887367932105165888371885246153794 (0x442918A05DC5F22D9393B39B879E8442)
Complete name : C:Video111Épouse-moi.mon.pote.2017.WEB-DL.1080p.ExKinoRay.mkv
Format : Matroska
Format version : Version 4 / Version 2
File size : 3.62 GiB
Duration : 1 h 27 min
Overall bit rate : 5 891 kb/s
Movie name : Épouse-moi mon pote 2017 from ExKinoRay
Encoded date : UTC 2018-02-09 14:48:41
Writing application : mkvmerge v20.0.0 ('I Am The Sun') 64-bit
Writing library : libebml v1.3.5 + libmatroska v1.4.8

Video
ID : 1
Format : AVC
Format/Info : Advanced Video Codec
Format profile : High@L4
Format settings : CABAC / 4 Ref Frames
Format settings, CABAC : Yes
Format settings, ReFrames : 4 frames
Codec ID : V_MPEG4/ISO/AVC
Duration : 1 h 27 min
Bit rate : 5 120 kb/s
Width : 1 920 pixels
Height : 1 038 pixels
Display aspect ratio : 1.85:1
Frame rate mode : Constant
Frame rate : 25.000 FPS
Color space : YUV
Chroma subsampling : 4:2:0
Bit depth : 8 bits
Scan type : Progressive
Bits/(Pixel*Frame) : 0.103
Stream size : 3.15 GiB (87%)
Language : English
Default : Yes
Forced : No
Color range : Limited
Color primaries : BT.709
Transfer characteristics : BT.709
Matrix coefficients : BT.709

Audio #1
ID : 2
Format : AC-3
Format/Info : Audio Coding 3
Codec ID : A_AC3
Duration : 1 h 27 min
Bit rate mode : Constant
Bit rate : 384 kb/s
Channel(s) : 6 channels
Channel positions : Front: L C R, Side: L R, LFE
Sampling rate : 48.0 kHz
Frame rate : 31.250 FPS (1536 SPF)
Bit depth : 16 bits
Compression mode : Lossy
Delay relative to video : -40 ms
Stream size : 242 MiB (7%)
Title : iTunes
Language : Russian
Service kind : Complete Main
Default : Yes
Forced : No

Audio #2
ID : 3
Format : AC-3
Format/Info : Audio Coding 3
Codec ID : A_AC3
Duration : 1 h 27 min
Bit rate mode : Constant
Bit rate : 384 kb/s
Channel(s) : 6 channels
Channel positions : Front: L C R, Side: L R, LFE
Sampling rate : 48.0 kHz
Frame rate : 31.250 FPS (1536 SPF)
Bit depth : 16 bits
Compression mode : Lossy
Delay relative to video : -40 ms
Stream size : 242 MiB (7%)
Title : iTunes
Language : Ukrainian
Service kind : Complete Main
Default : No
Forced : No

Menu
00:00:00.000 : en:Глава 1
00:07:03.000 : en:Глава 2
00:14:06.200 : en:Глава 3
00:22:33.160 : en:Глава 4
00:30:19.760 : en:Глава 5
00:37:39.919 : en:Глава 6
00:44:53.558 : en:Глава 7
00:51:55.677 : en:Глава 8
00:59:13.436 : en:Глава 9
01:06:25.956 : en:Глава 10
01:15:28.955 : en:Глава 11



Скачать Женись.на.мне.чувак.Épouse-moi.mon.pote.(Тарек.Будали).[2017.комедия.приключения.WEB-DL].[1080p].[Dub.Rus.Ukr.(лицензия.iTunes)].torrent без регистрации
Золото ЗОЛОТАЯ РАЗДАЧА! СКАЧАННОЕ НЕ ЗАСЧИТЫВАЕТСЯ! Золото
Дата: Зарегистрирован   [ Тип: внутренний ] Как тут cкачать?
MAGNET ссылка
MAGNET ссылка


Скачать .torrent

19 KB

Статус: проверено DHT
Скачан: торрент - 100 раз, раздача полностью - 128 раз
Размер: 3,62 GB
Оценка:  - (Голосов: 0)
Поблагодарили: 5
Поделиться ссылкой на эту раздачу с друзьями:
В контактеFacebookОдноклассникиTwitterLivejournalМой МирLiveinternet
 

 
Показать сообщения:    


Вы не можете начинать темы
Вы не можете отвечать на сообщения
Вы не можете редактировать свои сообщения
Вы не можете удалять свои сообщения
Вы не можете голосовать в опросах
Вы не можете прикреплять файлы к сообщениям
Вы можете скачивать файлы