Loading...
Error

Скачать Трансформеры: Последний рыцарь / Transformers: The Last Knight (Майкл Бэй) [2017, фантастика, боевик, триллер, приключения, BDRip-HEVC] [2160p] [Dub (лицензия)]+[Eng]+[Sub Rus [IMAX edition] торрент без регистрации

Статистика раздачи
Размер:  21,93 GB   |    Скачан:  35 раз
Сидов:  3  [  862 KB/s  ]  
 
 
 
Автор Сообщение

МихаНЕзатор

[] 

Информация о фильме
Название: Трансформеры: Последний рыцарь
Оригинальное название: Transformers: The Last Knight
Год выхода: 2017
Жанр: Фантастика, боевик, триллер, приключения
Режиссер: Майкл Бэй

В ролях: Марк Уолберг, Энтони Хопкинс, Джош Дюамель, Лора Хэддок, Сантьяго Кабрера, Изабела Монер, Джеррод Кармайкл, Стэнли Туччи, Лиам Гэрриган, Мартин МакКриди

О фильме: Оптимус Прайм исчез. Люди ведут войну с Трансформерами. Ключ к нашему будущему погребен в тайнах прошлого, в скрытой истории Трансформеров на Земле… Миссия по спасению мира ложится на плечи разношерстной компании, состоящей из Кейда Йегера, Бамблби, английского лорда и профессора из Оксфорда. Пришла пора действовать! Жертвы станут героями. Герои станут злодеями. Выстоит только один мир: их или наш.



Релиз от: HANNIBAL

Страна: США
Студия: Di Bonaventura Pictures, Hasbro Inc., Huahua Film & Media Culture, Ian Bryce Productions, Paramount Pictures
Продолжительность: 02:34:39
Перевод: Дублированный

Файл
Кодек: HEVC x265 10 bit
Качество: BDRip-HEVC 2160p
Видео: 3840x1906, 19,300 Кбит/сек, 23,976 кадр/сек, HEVC (Main 10@L5.1@Main) 10 бит
Звук: AC3, 640 Кбит/сек, Front: L C R, Side: L R, LFE, 48,0 КГц (DUB)
Субтитры: Русские (forced, full)

АНОНСЫ ПОПУЛЯРНЫХ РАЗДАЧ

General
Unique ID : 193819091382569327568744384234701433743 (0x91D032FE08E0F1A79B75813F0B07AB8F)
Complete name : G:[HEVC]UHD [HEVC]Transformers The Last Knight (2017) UHDRip 2160p [HEVC] 10bit.mkv
Format : Matroska
Format version : Version 4 / Version 2
File size : 21.9 GiB
Duration : 2 h 34 min
Overall bit rate : 20.3 Mb/s
Encoded date : UTC 2018-02-10 08:07:09
Writing application : mkvmerge v8.9.0 ('Father Daughter') 64bit
Writing library : libebml v1.3.3 + libmatroska v1.4.4 / Lavf57.71.100
Cover : Yes
Attachments : cover.jpg
ENCODING_INFO : MATROSKA,WEBM > MKV / HEVC > X265 CBR 20000kbps Medium / AC3 > AC3 CBR 640kbps

Video
ID : 1
Format : HEVC
Format/Info : High Efficiency Video Coding
Format profile : Main 10@L5.1@Main
Codec ID : V_MPEGH/ISO/HEVC
Duration : 2 h 34 min
Bit rate : 19.7 Mb/s
Width : 3 840 pixels
Height : 1 906 pixels
Display aspect ratio : 2.015
Frame rate mode : Constant
Frame rate : 23.976 (24000/1001) FPS
Color space : YUV
Chroma subsampling : 4:2:0
Bit depth : 10 bits
Bits/(Pixel*Frame) : 0.112
Stream size : 21.2 GiB (97%)
Writing library : x265 2.6+37-1949157705ce:[Windows][GCC 7.3.0][64 bit] 10bit
Encoding settings : cpuid=1050111 / frame-threads=5 / numa-pools=4 / wpp / no-pmode / no-pme / no-psnr / no-ssim / log-level=3 / input-csp=1 / input-res=3840x1906 / interlace=0 / total-frames=0 / level-idc=51 / high-tier=1 / uhd-bd=0 / ref=3 / allow-non-conformance / no-repeat-headers / annexb / no-aud / no-hrd / info / hash=0 / no-temporal-layers / open-gop / min-keyint=24 / keyint=240 / gop-lookahead=0 / bframes=4 / b-adapt=2 / b-pyramid / bframe-bias=0 / rc-lookahead=20 / lookahead-slices=8 / scenecut=40 / radl=0 / no-intra-refresh / ctu=64 / min-cu-size=8 / no-rect / no-amp / max-tu-size=32 / tu-inter-depth=1 / tu-intra-depth=1 / limit-tu=0 / rdoq-level=0 / dynamic-rd=0.00 / no-ssim-rd / signhide / no-tskip / nr-intra=0 / nr-inter=0 / no-constrained-intra / strong-intra-smoothing / max-merge=2 / limit-refs=3 / no-limit-modes / me=1 / subme=2 / merange=57 / temporal-mvp / weightp / no-weightb / no-analyze-src-pics / deblock=-3:-3 / sao / no-sao-non-deblock / rd=3 / no-early-skip / rskip / no-fast-intra / no-tskip-fast / no-cu-lossless / no-b-intra / no-splitrd-skip / rdpenalty=0 / psy-rd=2.00 / psy-rdoq=0.00 / no-rd-refine / no-lossless / cbqpoffs=0 / crqpoffs=0 / rc=cbr / bitrate=20000 / qcomp=0.60 / qpstep=4 / stats-write=0 / stats-read=0 / vbv-maxrate=20000 / vbv-bufsize=14285 / vbv-init=0.9 / ipratio=1.40 / pbratio=1.30 / aq-mode=1 / aq-strength=1.00 / cutree / zone-count=0 / no-strict-cbr / qg-size=32 / no-rc-grain / qpmax=69 / qpmin=0 / no-const-vbv / sar=1 / overscan=0 / videoformat=5 / range=0 / colorprim=9 / transfer=16 / colormatrix=9 / chromaloc=0 / display-window=0 / max-cll=0,0 / min-luma=0 / max-luma=1023 / log2-max-poc-lsb=8 / vui-timing-info / vui-hrd-info / slices=1 / no-opt-qp-pps / no-opt-ref-list-length-pps / no-multi-pass-opt-rps / scenecut-bias=0.05 / no-opt-cu-delta-qp / no-aq-motion / no-hdr / no-hdr-opt / no-dhdr10-opt / analysis-reuse-level=5 / scale-factor=0 / refine-intra=0 / refine-inter=0 / refine-mv=0 / no-limit-sao / ctu-info=0 / no-lowpass-dct / refine-mv-type=0 / copy-pic=1
Language : English
Default : Yes
Forced : No
Color range : Limited
Color primaries : BT.2020
Transfer characteristics : PQ
Matrix coefficients : BT.2020 non-constant

Audio
ID : 2
Format : AC-3
Format/Info : Audio Coding 3
Codec ID : A_AC3
Duration : 2 h 34 min
Bit rate mode : Constant
Bit rate : 640 kb/s
Channel(s) : 6 channels
Channel positions : Front: L C R, Side: L R, LFE
Sampling rate : 48.0 kHz
Frame rate : 31.250 FPS (1536 SPF)
Bit depth : 16 bits
Compression mode : Lossy
Stream size : 708 MiB (3%)
Title : Dub [License]
Language : Russian
Service kind : Complete Main
Default : Yes
Forced : No

Text
ID : 3
Format : UTF-8
Codec ID : S_TEXT/UTF8
Codec ID/Info : UTF-8 Plain Text
Duration : 2 h 33 min
Bit rate : 0 b/s
Count of elements : 29
Stream size : 1.03 KiB (0%)
Title : Forced
Language : Russian
Default : Yes
Forced : No

Menu
00:00:00.000 : :Chapter 01
00:06:36.104 : :Chapter 02
00:14:03.468 : :Chapter 03
00:21:45.763 : :Chapter 04
00:27:53.255 : :Chapter 05
00:33:53.907 : :Chapter 06
00:40:08.906 : :Chapter 07
00:46:58.941 : :Chapter 08
00:53:25.786 : :Chapter 09
01:02:02.928 : :Chapter 10
01:08:47.081 : :Chapter 11
01:14:37.223 : :Chapter 12
01:20:10.180 : :Chapter 13
01:29:13.390 : :Chapter 14
01:37:59.499 : :Chapter 15
01:44:57.583 : :Chapter 16
01:51:15.502 : :Chapter 17
01:57:59.447 : :Chapter 18
02:06:09.729 : :Chapter 19
02:10:54.096 : :Chapter 20
02:16:01.153 : :Chapter 21
02:21:42.619 : :Chapter 22
02:25:17.292 : :Chapter 23



Скачать Трансформеры.Последний.рыцарь.Transformers.The.Last.Knight.(Майкл.Бэй).[2017.фантастика.боевик.триллер.приключения.BDRip-HEVC].[2160p].[Dub.(лицензия)]+[Eng]+[Sub.Rus.[IMAX.edition].torrent без регистрации
Золото ЗОЛОТАЯ РАЗДАЧА! СКАЧАННОЕ НЕ ЗАСЧИТЫВАЕТСЯ! Золото
Дата: Зарегистрирован   [ Тип: внутренний ] Как тут cкачать?
MAGNET ссылка
MAGNET ссылка


Скачать .torrent

56 KB

Статус: проверено DHT
Скачан: торрент - 35 раз, раздача полностью - 23 раз
Размер: 21,93 GB
Оценка:  5 (Голосов: 1)
Поблагодарили: 5
Поделиться ссылкой на эту раздачу с друзьями:
В контактеFacebookОдноклассникиTwitterLivejournalМой МирLiveinternet
 

 
Показать сообщения:    


Вы не можете начинать темы
Вы не можете отвечать на сообщения
Вы не можете редактировать свои сообщения
Вы не можете удалять свои сообщения
Вы не можете голосовать в опросах
Вы не можете прикреплять файлы к сообщениям
Вы можете скачивать файлы