Loading...
Error

Скачать Бунтарь без причины / Rebel Without a Cause (Николас Рэй) [1955, драма, мелодрама, BDRip] [720p] [MVO]+[DVO]+[Eng]x2+[Sub Rus, Eng]x2 торрент без регистрации

Статистика раздачи
Размер:  7,08 GB   |    Скачан:  17 раз

Полного источника не было: 30 минут

 
 
 
Автор Сообщение

Marsianka

[] 

Информация о фильме
Название: Бунтарь без причины
Оригинальное название: Rebel Without a Cause
Год выхода: 1955
Жанр: драма, мелодрама
Режиссер: Николас Рэй
В ролях: Джеймс Дин, Натали Вуд, Сэл Минео, Джим Бакус, Энн Доран, Кори Аллен, Уильям Хоппер, Рошелль Хадсон, Эдвард Платт, Штеффи Сидни

О фильме:
Шалопай и сорвиголова Джим вынужден постоянно ходить во все новые и новые школы, так как его отовсюду выгоняют. Вот и на этот раз он идет в новый класс, где встречает классную девчонку.
Между ними сразу возникает взаимная симпатия, но она не собирается сдаваться ему сразу и без борьбы — она изо всех сил дразнит его, она уделяет повышенное внимание своему старому бойфренду, крутому «кожаному» Базу, она провоцирует обоих парней на поединок.
И он должен состояться — на огромной скорости машины направляются к обрыву…



Страна: США / Warner Bros. Pictures
Продолжительность: 01:50:55
Перевод: Профессиональный (многоголосый закадровый) + Профессиональный (двухголосый закадровый)

Файл
Формат: MKV
Качество: BDRip 720p
Видео: 1280x502 at 23.976 fps, x264@L4.1, ~7545 kbps avg
Аудио #1: Russian: 48 kHz, AC3, 3/2 (L,C,R,l,r) + LFE ch, ~384.00 kbps avg
Аудио #2: Russian: 48 kHz, AC3, 2/0 (L,R) ch, ~192.00 kbps avg |Двухголосый закадровый, Культура|
Аудио #3: English: 48 kHz, AC3, 3/2 (L,C,R,l,r) + LFE ch, ~640.00 kbps avg
Аудио #4: English: 48 kHz, AC3, 2/0 (L,R) ch, ~192.00 kbps avg |Комментарии|
Cубтитры: русские, английские
Сэмпл
General
Unique ID : 214279596144144599545440027155049547428 (0xA134BFC2F460EAB9BA2C5561108506A4)
Complete name : Rebel.Without.a.Cause.1955.720p.BluRay.2xRus.2xEng.mkv
Format : Matroska
Format version : Version 4 / Version 2
File size : 7.08 GiB
Duration : 1 h 50 min
Overall bit rate : 9 135 kb/s
Encoded date : UTC 2014-03-28 11:59:34
Writing application : mkvmerge v6.7.0 ('Back to the Ground') 64bit built on Jan 8 2014 15:10:52
Writing library : libebml v1.3.0 + libmatroska v1.4.1

Video
ID : 1
Format : AVC
Format/Info : Advanced Video Codec
Format profile : High@L4.1
Format settings, CABAC : Yes
Format settings, ReFrames : 11 frames
Codec ID : V_MPEG4/ISO/AVC
Duration : 1 h 50 min
Bit rate : 7 545 kb/s
Width : 1 280 pixels
Height : 502 pixels
Display aspect ratio : 2.550
Frame rate mode : Constant
Frame rate : 23.976 (24000/1001) FPS
Color space : YUV
Chroma subsampling : 4:2:0
Bit depth : 8 bits
Scan type : Progressive
Bits/(Pixel*Frame) : 0.490
Stream size : 5.85 GiB (83%)
Title : Rebel.Without.a.Cause.1955.720p.BluRay.DD5.1.x264-DON
Writing library : x264 core 120 r2164+656 2ff844c
Encoding settings : cabac=1 / ref=11 / deblock=1:-3:-3 / analyse=0x3:0x133 / me=umh / subme=10 / psy=1 / fade_compensate=0.00 / psy_rd=1.00:0.02 / mixed_ref=1 / me_range=32 / chroma_me=1 / trellis=2 / 8x8dct=1 / cqm=0 / deadzone=21,11 / fast_pskip=0 / chroma_qp_offset=-3 / threads=3 / sliced_threads=0 / nr=0 / decimate=0 / interlaced=0 / bluray_compat=0 / constrained_intra=0 / fgo=0 / bframes=7 / b_pyramid=2 / b_adapt=2 / b_bias=0 / direct=3 / weightb=1 / open_gop=0 / weightp=2 / keyint=250 / keyint_min=23 / scenecut=40 / intra_refresh=0 / rc=crf / mbtree=0 / crf=16.1 / qcomp=0.60 / qpmin=0 / qpmax=69 / qpstep=4 / ip_ratio=1.40 / pb_ratio=1.20 / aq=3:0.90
Language : English
Default : Yes
Forced : No

Audio #1
ID : 2
Format : AC-3
Format/Info : Audio Coding 3
Mode extension : CM (complete main)
Format settings, Endianness : Big
Codec ID : A_AC3
Duration : 1 h 50 min
Bit rate mode : Constant
Bit rate : 384 kb/s
Channel(s) : 6 channels
Channel positions : Front: L C R, Side: L R, LFE
Sampling rate : 48.0 kHz
Frame rate : 31.250 FPS (1536 spf)
Bit depth : 16 bits
Compression mode : Lossy
Stream size : 305 MiB (4%)
Title : MVO
Language : Russian
Default : Yes
Forced : No

Audio #2
ID : 3
Format : AC-3
Format/Info : Audio Coding 3
Mode extension : CM (complete main)
Format settings, Endianness : Big
Codec ID : A_AC3
Duration : 1 h 50 min
Bit rate mode : Constant
Bit rate : 192 kb/s
Channel(s) : 2 channels
Channel positions : Front: L R
Sampling rate : 48.0 kHz
Frame rate : 31.250 FPS (1536 spf)
Bit depth : 16 bits
Compression mode : Lossy
Stream size : 152 MiB (2%)
Title : DVO
Language : Russian
Default : No
Forced : No

Audio #3
ID : 4
Format : AC-3
Format/Info : Audio Coding 3
Mode extension : CM (complete main)
Format settings, Endianness : Big
Codec ID : A_AC3
Duration : 1 h 50 min
Bit rate mode : Constant
Bit rate : 640 kb/s
Channel(s) : 6 channels
Channel positions : Front: L C R, Side: L R, LFE
Sampling rate : 48.0 kHz
Frame rate : 31.250 FPS (1536 spf)
Bit depth : 16 bits
Compression mode : Lossy
Stream size : 508 MiB (7%)
Language : English
Default : No
Forced : No

Audio #4
ID : 5
Format : AC-3
Format/Info : Audio Coding 3
Format profile : Dolby Digital
Mode extension : CM (complete main)
Format settings, Endianness : Big
Codec ID : A_AC3
Duration : 1 h 50 min
Bit rate mode : Constant
Bit rate : 192 kb/s
Channel(s) : 2 channels
Channel positions : Front: L R
Sampling rate : 48.0 kHz
Frame rate : 31.250 FPS (1536 spf)
Bit depth : 16 bits
Compression mode : Lossy
Stream size : 152 MiB (2%)
Title : Commentary by Douglas L. Rathgeb
Language : English
Default : No
Forced : No

Text #1
ID : 6
Format : UTF-8
Codec ID : S_TEXT/UTF8
Codec ID/Info : UTF-8 Plain Text
Title : Culture
Language : Russian
Default : No
Forced : No

Text #2
ID : 7
Format : UTF-8
Codec ID : S_TEXT/UTF8
Codec ID/Info : UTF-8 Plain Text
Language : Russian
Default : No
Forced : No

Text #3
ID : 8
Format : UTF-8
Codec ID : S_TEXT/UTF8
Codec ID/Info : UTF-8 Plain Text
Language : English
Default : No
Forced : No

Text #4
ID : 9
Format : UTF-8
Codec ID : S_TEXT/UTF8
Codec ID/Info : UTF-8 Plain Text
Title : SDH
Language : English
Default : No
Forced : No

Menu
00:00:00.000 : :00:00:00.000
00:10:04.938 : :00:10:04.938
00:21:59.610 : :00:21:59.610
00:30:30.328 : :00:30:30.328
00:42:01.686 : :00:42:01.686
00:51:38.637 : :00:51:38.637
01:05:36.683 : :01:05:36.683
01:17:20.886 : :01:17:20.886
01:27:44.634 : :01:27:44.634
01:39:05.064 : :01:39:05.064



Скачать Бунтарь.без.причины.Rebel.Without.a.Cause.(Николас.Рэй).[1955.драма.мелодрама.BDRip].[720p].[MVO]+[DVO]+[Eng]x2+[Sub.Rus.Eng]x2.torrent без регистрации
Золото ЗОЛОТАЯ РАЗДАЧА! СКАЧАННОЕ НЕ ЗАСЧИТЫВАЕТСЯ! Золото
Дата: Зарегистрирован   [ Тип: внутренний ] Как тут cкачать?
MAGNET ссылка
MAGNET ссылка


Скачать .torrent

36 KB

Статус: проверено DHT
Скачан: торрент - 17 раз, раздача полностью - 0 раз
Размер: 7,08 GB
Оценка:  - (Голосов: 0)
Поблагодарили: 0
Поделиться ссылкой на эту раздачу с друзьями:
В контактеFacebookОдноклассникиTwitterLivejournalМой МирLiveinternet
 

 
Показать сообщения:    


Вы не можете начинать темы
Вы не можете отвечать на сообщения
Вы не можете редактировать свои сообщения
Вы не можете удалять свои сообщения
Вы не можете голосовать в опросах
Вы не можете прикреплять файлы к сообщениям
Вы можете скачивать файлы