Loading...
Error

Скачать Майкл Коллинз / Michael Collins (Нил Джордан) [1996, триллер, драма, военный, биография, BDRip] [1080p] [Dub]+[AVO]+[MVO]+[Eng]x2+[Sub]x8 торрент без регистрации

Статистика раздачи
Размер:  20,36 GB   |    Скачан:  11 раз
Сидов:  1  [  0 KB/s  ]  
 
 
 
Автор Сообщение

Marsianka

[] 

Информация о фильме
Название: Майкл Коллинз
Оригинальное название: Michael Collins
Год выхода: 1996
Жанр: триллер, драма, военный, биография
Режиссер: Нил Джордан
В ролях: Лиам Нисон, Эйдан Куинн, Стивен Ри, Алан Рикман, Джулия Робертс, Иэн Харт, Ричард Ингрэм, Джон Кенни, Ронан МакКейрбре, Джер О’Лири

О фильме:
Фильм о человеке, чья храбрость и преданность своему народу изменили историю его страны — Ирландии — и сделали его имя легендой.



Страна: Великобритания, Ирландия, США
Продолжительность: 02:12:36
Перевод: Профессиональный (дублированный) + Авторский (Одноголосый закадровый) + Профессиональный (многоголосый закадровый)

Рип от CtrlHD

Файл
Формат: MKV
Видео: 1920x1080 at 23.976 fps, x264@L4.1, ~19.1 Mbps avg
Аудио#1: Russian: 48 kHz, AC3, 2/0 (L,R) ch, ~192 kbps avg |Дубляж|
Аудио#2: Russian: 48 kHz, AC3, 2/0 (L,R) ch, ~192 kbps avg |Одноголосый закадровый, А.Кашкин|
Аудио#3: Ukrainian: 48 kHz, AC3, 3/2 (L,C,R,l,r) + LFE ch, ~384 kbps avg |Многоголосый закадровый, Цікава Ідея|
Аудио#4: English: 48 kHz, DTS, 3/2 (L,C,R,l,r) + LFE ch, ~1536.00 kbps avg
Аудио#5: English: 48 kHz, AC3, 2/0 (L,R) ch, ~192 kbps avg |Commentary|
Субтитры: Russian, English, Czech, French, German, Polish, Spanish (Castilian), Spanish (Latin American)
Complete name: Michael.Collins.1996.1080p.BluRay.2xRus.Ukr.2xEng.HDCLUB.mkv
Format : Matroska
Format version : Version 2
File size : 20.4 GiB
Duration : 2h 12mn
Overall bit rate : 22.0 Mbps
Movie name : Michael Collins (1996) - Release for HDCLUB
Encoded date : UTC 2016-05-17 14:43:27
Writing application : mkvmerge v5.7.0 ('The Whirlwind') built on Jul 8 2012 20:08:51
Writing library : libebml v1.2.3 + libmatroska v1.3.0

Video
ID : 1
Format : AVC
Format/Info : Advanced Video Codec
Format profile : High@L4.1
Format settings, CABAC : Yes
Format settings, ReFrames : 4 frames
Codec ID : V_MPEG4/ISO/AVC
Duration : 2h 12mn
Bit rate : 19.1 Mbps
Width : 1 920 pixels
Height : 1 080 pixels
Display aspect ratio : 16:9
Frame rate mode : Constant
Frame rate : 23.976 (24000/1001) fps
Color space : YUV
Chroma subsampling : 4:2:0
Bit depth : 8 bits
Scan type : Progressive
Bits/(Pixel*Frame) : 0.384
Stream size : 17.7 GiB (87%)
Writing library : x264 core 148 r2692kMod 64f4e24
Encoding settings : cabac=1 / ref=4 / deblock=1:-3:-3 / analyse=0x3:0x133 / me=umh / subme=10 / psy=1 / fade_compensate=0.00 / psy_rd=1.00:0.00 / mixed_ref=1 / me_range=32 / chroma_me=1 / trellis=2 / 8x8dct=1 / cqm=0 / deadzone=21,11 / fast_pskip=0 / chroma_qp_offset=-2 / threads=6 / lookahead_threads=1 / sliced_threads=0 / nr=0 / decimate=0 / interlaced=0 / bluray_compat=0 / constrained_intra=0 / fgo=0 / bframes=8 / b_pyramid=2 / b_adapt=2 / b_bias=0 / direct=3 / weightb=1 / open_gop=0 / weightp=2 / keyint=250 / keyint_min=23 / scenecut=40 / intra_refresh=0 / rc=crf / mbtree=0 / crf=19.0000 / qcomp=0.60 / qpmin=0 / qpmax=69 / qpstep=4 / ip_ratio=1.40 / pb_ratio=1.20 / aq=3:0.90
Language : English
Default : Yes
Forced : No

Audio #1
ID : 2
Format : AC-3
Format/Info : Audio Coding 3
Mode extension : CM (complete main)
Format settings, Endianness : Big
Codec ID : A_AC3
Duration : 2h 12mn
Bit rate mode : Constant
Bit rate : 192 Kbps
Channel(s) : 2 channels
Channel positions : Front: L R
Sampling rate : 48.0 KHz
Frame rate : 31.250 fps (1536 spf)
Compression mode : Lossy
Stream size : 182 MiB (1%)
Title : |Дубляж|
Language : Russian
Default : Yes
Forced : No

Audio #2
ID : 3
Format : AC-3
Format/Info : Audio Coding 3
Mode extension : CM (complete main)
Format settings, Endianness : Big
Codec ID : A_AC3
Duration : 2h 12mn
Bit rate mode : Constant
Bit rate : 192 Kbps
Channel(s) : 2 channels
Channel positions : Front: L R
Sampling rate : 48.0 KHz
Frame rate : 31.250 fps (1536 spf)
Compression mode : Lossy
Stream size : 182 MiB (1%)
Title : |Одноголосый закадровый, А.Кашкин|
Language : Russian
Default : No
Forced : No

Audio #3
ID : 4
Format : AC-3
Format/Info : Audio Coding 3
Mode extension : CM (complete main)
Format settings, Endianness : Big
Codec ID : A_AC3
Duration : 2h 12mn
Bit rate mode : Constant
Bit rate : 384 Kbps
Channel(s) : 6 channels
Channel positions : Front: L C R, Side: L R, LFE
Sampling rate : 48.0 KHz
Frame rate : 31.250 fps (1536 spf)
Compression mode : Lossy
Stream size : 364 MiB (2%)
Title : |Многоголосый закадровый, Цікава Ідея|
Language : Ukrainian
Default : No
Forced : No

Audio #4
ID : 5
Format : DTS
Format/Info : Digital Theater Systems
Mode : 16
Format settings, Endianness : Big
Codec ID : A_DTS
Duration : 2h 12mn
Bit rate mode : Constant
Bit rate : 1 509 Kbps
Channel(s) : 6 channels
Channel positions : Front: L C R, Side: L R, LFE
Sampling rate : 48.0 KHz
Frame rate : 93.750 fps (512 spf)
Bit depth : 24 bits
Compression mode : Lossy
Stream size : 1.40 GiB (7%)
Language : English
Default : No
Forced : No

Audio #5
ID : 6
Format : AC-3
Format/Info : Audio Coding 3
Format profile : Dolby Digital
Mode extension : CM (complete main)
Format settings, Endianness : Big
Codec ID : A_AC3
Duration : 2h 12mn
Bit rate mode : Constant
Bit rate : 192 Kbps
Channel(s) : 2 channels
Channel positions : Front: L R
Sampling rate : 48.0 KHz
Frame rate : 31.250 fps (1536 spf)
Compression mode : Lossy
Stream size : 182 MiB (1%)
Title : Commentary by Director/Writer Neil Jordan
Language : English
Default : No
Forced : No

Text #1
ID : 7
Format : UTF-8
Codec ID : S_TEXT/UTF8
Codec ID/Info : UTF-8 Plain Text
Language : Russian
Default : No
Forced : No

Text #2
ID : 8
Format : UTF-8
Codec ID : S_TEXT/UTF8
Codec ID/Info : UTF-8 Plain Text
Language : Czech
Default : No
Forced : No

Text #3
ID : 9
Format : UTF-8
Codec ID : S_TEXT/UTF8
Codec ID/Info : UTF-8 Plain Text
Language : English
Default : No
Forced : No

Text #4
ID : 10
Format : UTF-8
Codec ID : S_TEXT/UTF8
Codec ID/Info : UTF-8 Plain Text
Language : French
Default : No
Forced : No

Text #5
ID : 11
Format : UTF-8
Codec ID : S_TEXT/UTF8
Codec ID/Info : UTF-8 Plain Text
Language : German
Default : No
Forced : No

Text #6
ID : 12
Format : UTF-8
Codec ID : S_TEXT/UTF8
Codec ID/Info : UTF-8 Plain Text
Language : Polish
Default : No
Forced : No

Text #7
ID : 13
Format : UTF-8
Codec ID : S_TEXT/UTF8
Codec ID/Info : UTF-8 Plain Text
Title : Castilian
Language : Spanish
Default : No
Forced : No

Text #8
ID : 14
Format : UTF-8
Codec ID : S_TEXT/UTF8
Codec ID/Info : UTF-8 Plain Text
Title : Latin American
Language : Spanish
Default : No
Forced : No

Menu
00:00:00.000 : en:00:00:00.000
00:01:54.406 : en:00:01:54.406
00:03:58.029 : en:00:03:58.029
00:07:18.188 : en:00:07:18.188
00:09:50.215 : en:00:09:50.215
00:11:16.885 : en:00:11:16.885
00:14:44.217 : en:00:14:44.217
00:17:06.484 : en:00:17:06.484
00:20:48.456 : en:00:20:48.456
00:22:16.502 : en:00:22:16.502
00:24:11.116 : en:00:24:11.116
00:30:35.333 : en:00:30:35.333
00:35:09.232 : en:00:35:09.232
00:36:47.497 : en:00:36:47.497
00:37:51.895 : en:00:37:51.895
00:39:20.650 : en:00:39:20.650
00:41:21.187 : en:00:41:21.187
00:44:00.221 : en:00:44:00.221
00:45:41.656 : en:00:45:41.656
00:47:00.943 : en:00:47:00.943
00:48:12.932 : en:00:48:12.932
00:51:05.062 : en:00:51:05.062
00:53:02.721 : en:00:53:02.721
00:56:58.415 : en:00:56:58.415
01:06:45.084 : en:01:06:45.084
01:10:36.732 : en:01:10:36.732
01:14:13.949 : en:01:14:13.949
01:15:38.409 : en:01:15:38.409
01:20:30.951 : en:01:20:30.951
01:22:46.795 : en:01:22:46.795
01:24:24.893 : en:01:24:24.893
01:25:56.318 : en:01:25:56.318
01:28:57.040 : en:01:28:57.040
01:32:12.527 : en:01:32:12.527
01:35:10.204 : en:01:35:10.204
01:36:52.098 : en:01:36:52.098
01:39:26.711 : en:01:39:26.711
01:42:18.966 : en:01:42:18.966
01:44:30.306 : en:01:44:30.306
01:45:37.248 : en:01:45:37.248
01:47:38.744 : en:01:47:38.744
01:51:21.383 : en:01:51:21.383
01:52:36.166 : en:01:52:36.166
01:54:02.961 : en:01:54:02.961
01:55:09.069 : en:01:55:09.069
01:59:41.883 : en:01:59:41.883
02:04:16.908 : en:02:04:16.908
02:05:05.039 : en:02:05:05.039
02:06:18.613 : en:02:06:18.613
Релиз от:



Скачать Майкл.Коллинз.Michael.Collins.(Нил.Джордан).[1996.триллер.драма.военный.биография.BDRip].[1080p].[Dub]+[AVO]+[MVO]+[Eng]x2+[Sub]x8.torrent без регистрации
Золото ЗОЛОТАЯ РАЗДАЧА! СКАЧАННОЕ НЕ ЗАСЧИТЫВАЕТСЯ! Золото
Дата: Зарегистрирован   [ Тип: внутренний ] Как тут cкачать?
MAGNET ссылка
MAGNET ссылка


Скачать .torrent

103 KB

Статус: проверено DHT
Скачан: торрент - 11 раз, раздача полностью - 1 раз
Размер: 20,36 GB
Оценка:  - (Голосов: 0)
Поблагодарили: 0
Поделиться ссылкой на эту раздачу с друзьями:
В контактеFacebookОдноклассникиTwitterLivejournalМой МирLiveinternet
 

 
Показать сообщения:    


Вы не можете начинать темы
Вы не можете отвечать на сообщения
Вы не можете редактировать свои сообщения
Вы не можете удалять свои сообщения
Вы не можете голосовать в опросах
Вы не можете прикреплять файлы к сообщениям
Вы можете скачивать файлы