Loading...
Error

Скачать Воздушная тюрьма / Con Air (Саймон Уэст) [1997, боевик, триллер, драма, криминал, BDRip] [1080p] [Dub]+[MVO]+[AVO]x2+[Eng]+[Sub Rus, Eng]x2 торрент без регистрации

Статистика раздачи
Размер:  13,5 GB   |    Скачан:  16 раз

Полного источника не было: 28 минут

 
 
 
Автор Сообщение

Marsianka

[] 

Информация о фильме
Название: Воздушная тюрьма
Оригинальное название: Con Air
Год выхода: 1997
Жанр: боевик, триллер, драма, криминал
Режиссер: Саймон Уэст
В ролях: Николас Кейдж, Джон Кьюсак, Джон Малкович, Винг Рэймс, Ник Чинланд, Стив Бушеми, Колм Мини, Рэйчел Тикотин, Дэвид Чаппелль, Майкелти Уильямсон, Дэнни Трехо, М.С. Гейни, Стив Истен, Реноли Сантьяго, Моника Поттер, Ландри Олбрайт, Брендан Келли, Карл Киарфалио, Соо Браунли, Хосе Зунига

О фильме:
«Воздушная тюрьма» - транспортное подразделение полиции США, перевозящее особо опасных преступников. Одним из этих рейсов возвращается домой Кэмерон По, освобожденный из тюрьмы после 8 лет заключения. Он так долго ждал этого и ничто не должно остановить его на пути домой. Внезапно Кэмерон оказывается свидетелем захвата самолета, организованного опаснейшим рецидивистом Сайрусом «Вирусом» Гриссомом. Он решает взять ситуацию в свои руки и помочь полиции, ведь для него это - единственный шанс попасть домой. Только один человек на земле готов поверить ему - шериф Винс Ларкин, который вынужден преодолевать невероятные трудности, чтобы предотвратить бегство преступников и не позволить своим ретивым начальникам взорвать самолет вместе со всеми пассажирами.


Страна: CША
Студия: Touchstone Pictures
Продолжительность: 01:55:26
Перевод: Дубляж, профессиональный многоголосый закадровый, авторский одноголосый закадровый.

Complete name : D:Con Air.1997.x264.BDRip_1080p.stimco.mkv
Format : Matroska
Format version : Version 4 / Version 2
File size : 13.5 GiB
Duration : 1 h 55 min
Overall bit rate : 16.7 Mb/s
Encoded date : UTC 2018-02-08 17:10:10
Writing application : mkvmerge v20.0.0 ('I Am The Sun') 64-bit
Writing library : libebml v1.3.5 + libmatroska v1.4.8

Video
ID : 1
Format : AVC
Format/Info : Advanced Video Codec
Format profile : High@L4.1
Format settings : CABAC / 5 Ref Frames
Format settings, CABAC : Yes
Format settings, ReFrames : 5 frames
Codec ID : V_MPEG4/ISO/AVC
Duration : 1 h 55 min
Bit rate : 11.5 Mb/s
Width : 1 920 pixels
Height : 816 pixels
Display aspect ratio : 2.35:1
Frame rate mode : Constant
Frame rate : 23.976 (24000/1001) FPS
Color space : YUV
Chroma subsampling : 4:2:0
Bit depth : 8 bits
Scan type : Progressive
Bits/(Pixel*Frame) : 0.307
Stream size : 9.31 GiB (69%)
Title : Con Air [BDR_1080p]
Writing library : x264 core 155 r2901 7d0ff22
Encoding settings : cabac=1 / ref=5 / deblock=1:-3:-3 / analyse=0x3:0x133 / me=umh / subme=10 / psy=1 / psy_rd=1.00:0.10 / mixed_ref=1 / me_range=45 / chroma_me=1 / trellis=2 / 8x8dct=1 / cqm=0 / deadzone=21,11 / fast_pskip=1 / chroma_qp_offset=-2 / threads=6 / lookahead_threads=1 / sliced_threads=0 / nr=0 / decimate=1 / interlaced=0 / bluray_compat=0 / constrained_intra=0 / bframes=8 / b_pyramid=2 / b_adapt=2 / b_bias=0 / direct=1 / weightb=1 / open_gop=0 / weightp=2 / keyint=240 / keyint_min=23 / scenecut=40 / intra_refresh=0 / rc_lookahead=65 / rc=crf / mbtree=1 / crf=17.5 / qcomp=0.60 / qpmin=0 / qpmax=65 / qpstep=4 / vbv_maxrate=62500 / vbv_bufsize=78125 / crf_max=0.0 / nal_hrd=none / filler=0 / ip_ratio=1.30 / aq=1:0.80
Language : English
Default : Yes
Forced : No

Audio #1
ID : 2
Format : AC-3
Format/Info : Audio Coding 3
Codec ID : A_AC3
Duration : 1 h 55 min
Bit rate mode : Constant
Bit rate : 192 kb/s
Channel(s) : 2 channels
Channel positions : Front: L R
Sampling rate : 48.0 kHz
Frame rate : 31.250 FPS (1536 SPF)
Bit depth : 16 bits
Compression mode : Lossy
Stream size : 159 MiB (1%)
Title : Dub [BD]
Language : Russian
Service kind : Complete Main
Default : No
Forced : No

Audio #2
ID : 3
Format : AC-3
Format/Info : Audio Coding 3
Codec ID : A_AC3
Duration : 1 h 55 min
Bit rate mode : Constant
Bit rate : 448 kb/s
Channel(s) : 6 channels
Channel positions : Front: L C R, Side: L R, LFE
Sampling rate : 48.0 kHz
Frame rate : 31.250 FPS (1536 SPF)
Bit depth : 16 bits
Compression mode : Lossy
Stream size : 370 MiB (3%)
Title : MVO [ORT]
Language : Russian
Service kind : Complete Main
Default : No
Forced : No

Audio #3
ID : 4
Format : DTS
Format/Info : Digital Theater Systems
Codec ID : A_DTS
Duration : 1 h 55 min
Bit rate mode : Constant
Bit rate : 1 509 kb/s
Channel(s) : 6 channels
Channel positions : Front: L C R, Side: L R, LFE
Sampling rate : 48.0 kHz
Frame rate : 93.750 FPS (512 SPF)
Bit depth : 24 bits
Compression mode : Lossy
Stream size : 1.22 GiB (9%)
Title : AVO_Gaevskiy
Language : Russian
Default : Yes
Forced : No

Audio #4
ID : 5
Format : DTS
Format/Info : Digital Theater Systems
Codec ID : A_DTS
Duration : 1 h 55 min
Bit rate mode : Constant
Bit rate : 1 509 kb/s
Channel(s) : 6 channels
Channel positions : Front: L C R, Side: L R, LFE
Sampling rate : 48.0 kHz
Frame rate : 93.750 FPS (512 SPF)
Bit depth : 24 bits
Compression mode : Lossy
Stream size : 1.22 GiB (9%)
Title : AVO_Gavrilov
Language : Russian
Default : No
Forced : No

Audio #5
ID : 6
Format : DTS
Format/Info : Digital Theater Systems
Codec ID : A_DTS
Duration : 1 h 55 min
Bit rate mode : Constant
Bit rate : 1 509 kb/s
Channel(s) : 6 channels
Channel positions : Front: L C R, Side: L R, LFE
Sampling rate : 48.0 kHz
Frame rate : 93.750 FPS (512 SPF)
Bit depth : 24 bits
Compression mode : Lossy
Stream size : 1.22 GiB (9%)
Language : English
Default : No
Forced : No

Text #1
ID : 7
Format : PGS
Muxing mode : zlib
Codec ID : S_HDMV/PGS
Codec ID/Info : Picture based subtitle format used on BDs/HD-DVDs
Duration : 1 h 54 min
Bit rate : 28.6 kb/s
Count of elements : 2344
Stream size : 23.5 MiB (0%)
Language : Russian
Default : No
Forced : No

Text #2
ID : 8
Format : PGS
Muxing mode : zlib
Codec ID : S_HDMV/PGS
Codec ID/Info : Picture based subtitle format used on BDs/HD-DVDs
Duration : 1 h 54 min
Bit rate : 31.6 kb/s
Count of elements : 2450
Stream size : 26.0 MiB (0%)
Language : English
Default : No
Forced : No

Menu
00:00:00.000 : en:00:00:00.000
00:05:00.000 : en:00:05:00.000
00:10:00.000 : en:00:10:00.000
00:15:00.000 : en:00:15:00.000
00:20:00.000 : en:00:20:00.000
00:25:00.000 : en:00:25:00.000
00:30:00.000 : en:00:30:00.000
00:35:00.000 : en:00:35:00.000
00:40:00.000 : en:00:40:00.000
00:45:00.000 : en:00:45:00.000
00:50:00.000 : en:00:50:00.000
00:55:00.000 : en:00:55:00.000
01:00:00.000 : en:01:00:00.000
01:05:00.000 : en:01:05:00.000
01:10:00.000 : en:01:10:00.000
01:15:00.000 : en:01:15:00.000
01:20:00.000 : en:01:20:00.000
01:25:00.000 : en:01:25:00.000
01:30:00.000 : en:01:30:00.000
01:35:00.000 : en:01:35:00.000
01:40:00.000 : en:01:40:00.000
01:45:00.000 : en:01:45:00.000
01:50:00.000 : en:01:50:00.000
01:55:00.000 : en:01:55:00.000
Файл
Кодек: х.264
Качество: BDRip 1080p
Видео: 1920x816, 23.976 fps, 11500 kbps

Русский AC3 / 2.0 / 48 kHz / 192 kbps - дубляж
Русский AC3 / 5.1 / 48 kHz / 448 kbps - многоголосый [OPT]
Русский DTS Audio 5.1 / 48 kHz / 1509 kbps / 24-bit - Гаевский
Русский DTS Audio 5.1 / 48 kHz / 1509 kbps / 24-bit - Гаврилов
Английский DTS Audio 5.1 / 48 kHz / 1509 kbps / 24-bit
Субтитры: Русские, английские.



Скачать Воздушная.тюрьма.Con.Air.(Саймон.Уэст).[1997.боевик.триллер.драма.криминал.BDRip].[1080p].[Dub]+[MVO]+[AVO]x2+[Eng]+[Sub.Rus.Eng]x2.torrent без регистрации
Золото ЗОЛОТАЯ РАЗДАЧА! СКАЧАННОЕ НЕ ЗАСЧИТЫВАЕТСЯ! Золото
Дата: Зарегистрирован   [ Тип: внутренний ] Как тут cкачать?
MAGNET ссылка
MAGNET ссылка


Скачать .torrent

68 KB

Статус: проверено DHT
Скачан: торрент - 16 раз, раздача полностью - 1 раз
Размер: 13,5 GB
Оценка:  - (Голосов: 0)
Поблагодарили: 0
Поделиться ссылкой на эту раздачу с друзьями:
В контактеFacebookОдноклассникиTwitterLivejournalМой МирLiveinternet
 

 
Показать сообщения:    


Вы не можете начинать темы
Вы не можете отвечать на сообщения
Вы не можете редактировать свои сообщения
Вы не можете удалять свои сообщения
Вы не можете голосовать в опросах
Вы не можете прикреплять файлы к сообщениям
Вы можете скачивать файлы