Loading...
Error

Скачать Врата ада / Hellgate (Уильям А. Леви) [1989, ужасы, комедия, BDRip-AVC] [MVO]+[AVO]x2+[Eng] торрент без регистрации

Статистика раздачи
Размер:  1,45 GB   |    Скачан:  12 раз
Сидов:  1  [  0 KB/s  ]  
 
 
 
Автор Сообщение

Marsianka

[] 

Страна: США, ЮАР
Жанр: ужасы, комедия
Продолжительность: 01:31:03
Год выпуска: 1989
Перевод: Профессиональный (многоголосый, закадровый), Авторский (одноголосый закадровый)
Режиссёр: Уильям А. Леви / William A. Levey
В ролях: Рон Палильо, Эбигейл Уолкотт, Карель Тричард, Ивэн Дж. Клиссер, Джоэнн Варде, Фрэнк Нотаро, Лэнс Вон, Виктор Меллени, Лен Спэрроухок
Описание: Магический кристалл обладает способностью воскрешать мертвых. В руках ожесточившегося Лукаса, который стремится отомстить за смерть дочери, кристалл становится чудовищным орудием. С его помощью Лукас создает целый город приведений. Судьба распоряжается так, что в этот страшный город попадает компания молодых людей.


Кодек: x.264
Качество: BDRip-AVC
Видео: High@L4.1; 1024x576; 1899 Кбит/сек; 23,976 кадра/сек; 0.134
Аудио:
1. MVO: HE-AAC; 48,0 КГц / 24,0 КГц; 96,0 Кбит/сек; 2 канала (Варус Видео)
2. AVO: HE-AAC; 48,0 КГц / 24,0 КГц; 96,0 Кбит/сек; 2 канала (Антон Алексеев)
3. AVO: HE-AAC; 48,0 КГц / 24,0 КГц; 96,0 Кбит/сек; 2 канала (Сергей Визгунов)
4. Английский: HE-AAC; 48,0 КГц / 24,0 КГц; 96,0 Кбит/сек; 2 канала
Субтитры: Нет
Главы: Да


Общее
Уникальный идентификатор : 239283526362865220066087413850288409872 (0xB40454B3609B6626A6A8BF26112BCD10)
Полное имя : D:Фильмы_УжасыВрата ада (1989) BDRip.mkv
Формат : Matroska
Версия формата : Version 4 / Version 2
Размер файла : 1,45 Гбайт
Продолжительность : 1 ч. 31 м.
Общий поток : 2285 Кбит/сек
Дата кодирования : UTC 2018-02-11 15:29:59
Программа кодирования : mkvmerge v9.8.0 ('Kuglblids') 64bit
Библиотека кодирования : libebml v1.3.4 + libmatroska v1.4.5

Видео
Идентификатор : 1
Формат : AVC
Формат/Информация : Advanced Video Codec
Профиль формата : High@L4.1
Настройки формата : CABAC / 14 Ref Frames
Параметр CABAC формата : Да
Параметр RefFrames формата : 14 кадров
Идентификатор кодека : V_MPEG4/ISO/AVC
Продолжительность : 1 ч. 31 м.
Битрейт : 1899 Кбит/сек
Ширина : 1024 пикселя
Высота : 576 пикселей
Соотношение сторон : 16:9
Режим частоты кадров : Постоянный
Частота кадров : 23,976 (24000/1001) кадра/сек
Цветовое пространство : YUV
Субдискретизация насыщенности : 4:2:0
Битовая глубина : 8 бит
Тип развёртки : Прогрессивная
Бит/(Пиксели*Кадры) : 0.134
Размер потока : 1,21 Гбайт (83%)
Библиотека кодирования : x264 core 152 r2851 ba24899
Настройки программы : cabac=1 / ref=14 / deblock=1:-1:-1 / analyse=0x3:0x133 / me=umh / subme=10 / psy=1 / psy_rd=1.00:0.15 / mixed_ref=1 / me_range=24 / chroma_me=1 / trellis=2 / 8x8dct=1 / cqm=0 / deadzone=21,11 / fast_pskip=1 / chroma_qp_offset=-3 / threads=6 / lookahead_threads=1 / sliced_threads=0 / nr=0 / decimate=1 / interlaced=0 / bluray_compat=0 / constrained_intra=0 / bframes=8 / b_pyramid=2 / b_adapt=2 / b_bias=0 / direct=3 / weightb=1 / open_gop=0 / weightp=2 / keyint=240 / keyint_min=23 / scenecut=40 / intra_refresh=0 / rc_lookahead=60 / rc=2pass / mbtree=0 / bitrate=1899 / ratetol=1.0 / qcomp=0.60 / qpmin=0 / qpmax=69 / qpstep=4 / cplxblur=20.0 / qblur=0.5 / vbv_maxrate=50000 / vbv_bufsize=62500 / nal_hrd=none / filler=0 / ip_ratio=1.40 / pb_ratio=1.30 / aq=1:1.00
Default : Да
Forced : Нет

Аудио #1
Идентификатор : 2
Формат : AAC
Формат/Информация : Advanced Audio Codec
Профиль формата : HE-AAC / LC
Настройки формата : Explicit
Идентификатор кодека : A_AAC-2
Продолжительность : 1 ч. 31 м.
Битрейт : 96,0 Кбит/сек
Каналы : 2 канала
Расположение каналов : Front: L R
Частота : 48,0 КГц / 24,0 КГц
Частота кадров : 23,438 кадра/сек (1024 SPF)
Метод сжатия : С потерями
Задержка видео : 31 мс.
Размер потока : 62,5 Мбайт (4%)
Заголовок : Варус Видео
Язык : Russian
Default : Да
Forced : Нет

Аудио #2
Идентификатор : 3
Формат : AAC
Формат/Информация : Advanced Audio Codec
Профиль формата : HE-AAC / LC
Настройки формата : Explicit
Идентификатор кодека : A_AAC-2
Продолжительность : 1 ч. 31 м.
Битрейт : 96,0 Кбит/сек
Каналы : 2 канала
Расположение каналов : Front: L R
Частота : 48,0 КГц / 24,0 КГц
Частота кадров : 23,438 кадра/сек (1024 SPF)
Метод сжатия : С потерями
Задержка видео : 31 мс.
Размер потока : 62,5 Мбайт (4%)
Заголовок : Антон Алексеев
Язык : Russian
Default : Нет
Forced : Нет

Аудио #3
Идентификатор : 4
Формат : AAC
Формат/Информация : Advanced Audio Codec
Профиль формата : HE-AAC / LC
Настройки формата : Explicit
Идентификатор кодека : A_AAC-2
Продолжительность : 1 ч. 31 м.
Битрейт : 96,0 Кбит/сек
Каналы : 2 канала
Расположение каналов : Front: L R
Частота : 48,0 КГц / 24,0 КГц
Частота кадров : 23,438 кадра/сек (1024 SPF)
Метод сжатия : С потерями
Задержка видео : 31 мс.
Размер потока : 62,5 Мбайт (4%)
Заголовок : Сергей Визгунов
Язык : Russian
Default : Нет
Forced : Нет

Аудио #4
Идентификатор : 5
Формат : AAC
Формат/Информация : Advanced Audio Codec
Профиль формата : HE-AAC / LC
Настройки формата : Explicit
Идентификатор кодека : A_AAC-2
Продолжительность : 1 ч. 31 м.
Битрейт : 96,0 Кбит/сек
Каналы : 2 канала
Расположение каналов : Front: L R
Частота : 48,0 КГц / 24,0 КГц
Частота кадров : 23,438 кадра/сек (1024 SPF)
Метод сжатия : С потерями
Задержка видео : 31 мс.
Размер потока : 62,5 Мбайт (4%)
Заголовок : Original
Язык : English
Default : Нет
Forced : Нет

Меню
00:00:00.000 : :Chapter 01
00:08:04.901 : :Chapter 02
00:14:47.928 : :Chapter 03
00:23:06.760 : :Chapter 04
00:31:36.477 : :Chapter 05
00:41:33.407 : :Chapter 06
00:49:12.658 : :Chapter 07
00:58:08.568 : :Chapter 08
01:04:24.443 : :Chapter 09
01:10:01.322 : :Chapter 10
01:16:23.036 : :Chapter 11
01:25:31.042 : :Chapter 12



Скачать Врата.ада.Hellgate.(Уильям.А.Леви).[1989.ужасы.комедия.BDRip-AVC].[MVO]+[AVO]x2+[Eng].torrent без регистрации
Золото ЗОЛОТАЯ РАЗДАЧА! СКАЧАННОЕ НЕ ЗАСЧИТЫВАЕТСЯ! Золото
Дата: Зарегистрирован   [ Тип: внутренний ] Как тут cкачать?
MAGNET ссылка
MAGNET ссылка


Скачать .torrent

15 KB

Статус: проверено DHT
Скачан: торрент - 12 раз, раздача полностью - 4 раз
Размер: 1,45 GB
Оценка:  - (Голосов: 0)
Поблагодарили: 0
Поделиться ссылкой на эту раздачу с друзьями:
В контактеFacebookОдноклассникиTwitterLivejournalМой МирLiveinternet
 

 
Показать сообщения:    


Вы не можете начинать темы
Вы не можете отвечать на сообщения
Вы не можете редактировать свои сообщения
Вы не можете удалять свои сообщения
Вы не можете голосовать в опросах
Вы не можете прикреплять файлы к сообщениям
Вы можете скачивать файлы