Loading...
Error

Скачать Лабиринт / Maze (Стефен Бурк) [2017, триллер, драма, криминал, детектив, приключения, история, HDRip] [720p] [MVO (GreenРай Studio)] торрент без регистрации

Статистика раздачи
Размер:  2,95 GB   |    Скачан:  40 раз
Сидов:  1  [  0 KB/s  ]  
 
 
 
Автор Сообщение

МихаНЕзатор

[] 

Информация о фильме
Название: Лабиринт
Оригинальное название: Maze
Год выпуска: 2017
Жанр: Триллер, драма, криминал, детектив, приключения, история
Режиссер: Стефен Бурк

В ролях: Том Вон-Лолор, Бэрри Уорд, Мартин МакКанн, Айлин Уолш, Аарон Монахэн, Ниам МакГрэйди, Элва Трилль, Тим Крид, Силлиан О’Салливан

О фильме: Фильм рассказывает о знаменитом побеге из тюрьмы её величества Мэйз. В 1983 году из тюрьмы максимальной безопасности сбежали 38 заключенных из Временной Ирландской республиканской армии. Побег стал крупнейшим по количеству сбежавших в британской истории со времен Второй Мировой войны.



Внимание,имеется видео и аудио реклама от спонсора показа

Страна: Великобритания, Германия, Швеция, Ирландия
Студия: Cyprus Avenue Films
Продолжительность: 01:29:39
Перевод: Любительский многоголосый [GreenРай Studio]

Файл
Кодек: x264
Качество: HDRip 720p
Видео: 4000 Кбит/с, 1280x536, 24.000 fps
Звук: Русский (AC3, 2 ch, 640 Кбит/с)

АНОНСЫ ПОПУЛЯРНЫХ РАЗДАЧ
General
Unique ID : 188036113702402318794246587922030765921 (0x8D76702DE98BE92287BCA9219373A761)
Complete name : E:GreenRayMaze.2017.P.BDRip.720p.mkv
Format : Matroska
Format version : Version 4 / Version 2
File size : 2.95 GiB
Duration : 1 h 33 min
Overall bit rate mode : Constant
Overall bit rate : 4 544 kb/s
Encoded date : UTC 2018-02-10 09:33:12
Writing application : mkvmerge v8.3.0 ('Over the Horizon') 64bit
Writing library : libebml v1.3.1 + libmatroska v1.4.2

Video
ID : 1
Format : AVC
Format/Info : Advanced Video Codec
Format profile : Main@L3.1
Format settings : CABAC / 3 Ref Frames
Format settings, CABAC : Yes
Format settings, ReFrames : 3 frames
Format settings, GOP : M=4, N=15
Codec ID : V_MPEG4/ISO/AVC
Duration : 1 h 33 min
Bit rate mode : Constant
Bit rate : 4 000 kb/s
Width : 1 280 pixels
Height : 536 pixels
Display aspect ratio : 2.40:1
Frame rate mode : Constant
Frame rate : 24.000 FPS
Standard : NTSC
Color space : YUV
Chroma subsampling : 4:2:0
Bit depth : 8 bits
Scan type : Progressive
Bits/(Pixel*Frame) : 0.243
Stream size : 2.54 GiB (86%)
Language : English
Default : Yes
Forced : No
Color range : Limited

Audio
ID : 2
Format : AC-3
Format/Info : Audio Coding 3
Codec ID : A_AC3
Duration : 1 h 33 min
Bit rate mode : Constant
Bit rate : 640 kb/s
Channel(s) : 2 channels
Channel positions : Front: L R
Sampling rate : 48.0 kHz
Frame rate : 31.250 FPS (1536 SPF)
Bit depth : 16 bits
Compression mode : Lossy
Stream size : 426 MiB (14%)
Service kind : Complete Main
Default : Yes
Forced : No

Состав дикторов Анастасия Гайдаржи, Илья Кочетков, Андрей Данилко
Руководитель проекта и координатор: Евгений Овчаренко
Организатор и координатор: Никита Марков
Пиар менеджер студии: Гриша Чернозатонский
Техническая поддержка: Александр Методий



Скачать Лабиринт.Maze.(Стефен.Бурк).[2017.триллер.драма.криминал.детектив.приключения.история.HDRip].[720p].[MVO.(GreenРай.Studio)].torrent без регистрации
Золото ЗОЛОТАЯ РАЗДАЧА! СКАЧАННОЕ НЕ ЗАСЧИТЫВАЕТСЯ! Золото
Дата: Зарегистрирован   [ Тип: внутренний ] Как тут cкачать?
MAGNET ссылка
MAGNET ссылка


Скачать .torrent

16 KB

Статус: проверено DHT
Скачан: торрент - 40 раз, раздача полностью - 49 раз
Размер: 2,95 GB
Оценка:  - (Голосов: 0)
Поблагодарили: 2
Поделиться ссылкой на эту раздачу с друзьями:
В контактеFacebookОдноклассникиTwitterLivejournalМой МирLiveinternet
 

 
Показать сообщения:    


Вы не можете начинать темы
Вы не можете отвечать на сообщения
Вы не можете редактировать свои сообщения
Вы не можете удалять свои сообщения
Вы не можете голосовать в опросах
Вы не можете прикреплять файлы к сообщениям
Вы можете скачивать файлы