Loading...
Error

Скачать Завивка / Permanent (Колетт Бёрсон) [2017, комедия, WEB-DL] [1080p] [MVO (HDrezka Studio)]+[Eng] торрент без регистрации

Статистика раздачи
Размер:  3,77 GB   |    Скачан:  27 раз
Сидов:  1  [  0 KB/s  ]  
 
 
 
Автор Сообщение

МихаНЕзатор

[] 

Информация о фильме
Название: Завивка
Оригинальное название: Permanent
Год выхода: 2017
Жанр: комедия
Режиссер: Колетт Бёрсон

В ролях: Патриция Аркетт, Рэйн Уилсон, Кира МакЛин, Кирстен Блум, Брайан Бремер , Дженна Бристер, Оуэн Бакенмайер, Крис Кондетти, Пол Д’Илайа

О фильме: История о проблемных волосах, подростковом возрасте и социально неловких членах семьи. О жизненных поворотах и плохо сделанных париках. О препятствиях для ежедневного выживания.



Страна: США
Студия: 2929 Entertainment, Park Pictures, Washington Square Films
Продолжительность: 01:33:10
Перевод: любительский многоголосый, закадровый [HDrezka Studio]

Файл
Кодек: H.264
Качество: WEB-DL 1080p
Видео: AVC, 1920x1034 (1.857), 23.976 fps ~ 5100 Kbps
Звук:
AC3, 48 KHz, 2 ch ~ 192 Kb/s (русский)
AC3, 48 KHz, 6 ch ~ 384 Kb/s (английский)
Субтитры: отсутствуют

АНОНСЫ ПОПУЛЯРНЫХ РАЗДАЧ

Общее
Уникальный идентификатор : 199061578396742441962962028049742306940 (0x95C1DD8EDC45F42CA5FD910F96421E7C)
Полное имя : Q:TorFPermanent.2017.1080p.WEB-DL1080p.Kinozal-Reliz.by WSM.mkv
Формат : Matroska
Версия формата : Version 2
Размер файла : 3,77 Гбайт
Продолжительность : 1 ч. 33 м.
Общий поток : 5791 Кбит/сек
Название фильма : Permanent.2017.1080p.WEB-DL.1080p
Дата кодирования : UTC 2018-02-11 04:51:27
Программа кодирования : mkvmerge v5.4.0 ('Piper') built on Mar 10 2012 13:34:39
Библиотека кодирования : libebml v1.2.3 + libmatroska v1.3.0
DURATION : 01:33:06.432000000
NUMBER_OF_FRAMES : 174576
NUMBER_OF_BYTES : 268148736
_STATISTICS_WRITING_APP : mkvmerge v20.0.0 ('I Am The Sun') 64-bit
_STATISTICS_WRITING_DATE_UTC : 2018-02-10 09:28:47
_STATISTICS_TAGS : BPS DURATION NUMBER_OF_FRAMES NUMBER_OF_BYTES

Видео
Идентификатор : 1
Формат : AVC
Формат/Информация : Advanced Video Codec
Профиль формата : High@L4.0
Параметр CABAC формата : Да
Параметр ReFrames формата : 4 кадра
Идентификатор кодека : V_MPEG4/ISO/AVC
Продолжительность : 1 ч. 33 м.
Битрейт : 5099 Кбит/сек
Ширина : 1920 пикселей
Высота : 1034 пикселя
Соотношение сторон : 1,857
Частота кадров : 23,976 кадра/сек
Цветовое пространство : YUV
Субдискретизация насыщенности : 4:2:0
Битовая глубина : 8 бит
Тип развёртки : Прогрессивная
Бит/(Пиксели*Кадры) : 0.107
Размер потока : 3,32 Гбайт (88%)
Язык : English
Default : Да
Forced : Нет
Основные цвета : BT.709-5, BT.1361, IEC 61966-2-4, SMPTE RP177
Характеристики трансфера : BT.709-5, BT.1361
Коэффициенты матрицы : BT.709-5, BT.1361, IEC 61966-2-4 709, SMPTE RP177

Аудио #1
Идентификатор : 2
Формат : AC-3
Формат/Информация : Audio Coding 3
Профиль формата : Dolby Digital
Расширение режима : CM (complete main)
Идентификатор кодека : A_AC3
Продолжительность : 1 ч. 33 м.
Вид битрейта : Постоянный
Битрейт : 192 Кбит/сек
Каналы : 2 канала
Расположение каналов : Front: L R
Частота : 48,0 КГц
Битовая глубина : 16 бит
Метод сжатия : С потерями
Размер потока : 128 Мбайт (3%)
Заголовок : HDrezka Studio
Язык : Russian
Default : Да
Forced : Нет

Аудио #2
Идентификатор : 3
Формат : AC-3
Формат/Информация : Audio Coding 3
Расширение режима : CM (complete main)
Идентификатор кодека : A_AC3
Продолжительность : 1 ч. 33 м.
Вид битрейта : Постоянный
Битрейт : 384 Кбит/сек
Каналы : 6 каналов
Расположение каналов : Front: L C R, Side: L R, LFE
Частота : 48,0 КГц
Битовая глубина : 16 бит
Метод сжатия : С потерями
Размер потока : 256 Мбайт (7%)
Язык : English
Default : Нет
Forced : Нет

Меню
00:00:00.000 : en:Can I get a Permanent
00:05:00.925 : en:Barry's School
00:11:25.934 : en:What about jogging
00:17:40.808 : en:School
00:24:05.526 : en:Home Life
00:28:05.599 : en:Friend or foe
00:34:53.465 : en:Martial Arts
00:43:06.874 : en:Captain Chicken
00:44:51.937 : en:Family troubles
00:51:32.045 : en:Games
00:57:59.932 : en:The Pool
01:03:04.194 : en:My Pig
01:09:26.075 : en:More Therapy
01:13:11.258 : en:Poetry competition
01:21:57.117 : en:Winner
01:24:56.879 : en:Take the plunge



Скачать Завивка.Permanent.(Колетт.Бёрсон).[2017.комедия.WEB-DL].[1080p].[MVO.(HDrezka.Studio)]+[Eng].torrent без регистрации
Золото ЗОЛОТАЯ РАЗДАЧА! СКАЧАННОЕ НЕ ЗАСЧИТЫВАЕТСЯ! Золото
Дата: Зарегистрирован   [ Тип: внутренний ] Как тут cкачать?
MAGNET ссылка
MAGNET ссылка


Скачать .torrent

20 KB

Статус: проверено DHT
Скачан: торрент - 27 раз, раздача полностью - 15 раз
Размер: 3,77 GB
Оценка:  - (Голосов: 0)
Поблагодарили: 3
Поделиться ссылкой на эту раздачу с друзьями:
В контактеFacebookОдноклассникиTwitterLivejournalМой МирLiveinternet
 

 
Показать сообщения:    


Вы не можете начинать темы
Вы не можете отвечать на сообщения
Вы не можете редактировать свои сообщения
Вы не можете удалять свои сообщения
Вы не можете голосовать в опросах
Вы не можете прикреплять файлы к сообщениям
Вы можете скачивать файлы