Loading...
Error

Скачать Война волков 2 / Wolf Warrior 2 / Zhan lang 2 (драма, боевик, военный) [2017, драма, боевик, военный, BDRip] [1080p] [MVO (GreenРай Studio)]+[Eng]+[Sub Eng] торрент без регистрации

Статистика раздачи
Размер:  10 GB   |    Скачан:  29 раз
Сидов:  1  [  0 KB/s  ]  
 
 
 
Автор Сообщение

МихаНЕзатор

[] 

Информация о фильме
Название: Война волков 2
Оригинальное название: Wolf Warrior 2 / Zhan lang 2
Год выхода: 2017
Жанр: драма, боевик, военный
Режиссер: Джеки Ву

В ролях: Джеки Ву, Фрэнк Грилло, Селина Джейд, У Ган, Чжан Хань, Юй Цзянь, Юй Нань, Чуньюй Шаньшань, Дин Хайфэн, Олег Прудиус

О фильме: Один из лучших спецназовцев Китая Лэн Фэн был лишен звания и сел в тюрьму на три года за поведение, по мнению руководства, недостойное китайского офицера. Пока наш герой сидел, его невесту убили где-то в Африке, а несостоявшемуся жениху досталась только необычная пуля, извлеченная из тела любимой. Выйдя, Лэн отправляется в Африку и заводит дружбу с пухлым местным пацаном, когда в стране вдруг начинается очередная революция.



Страна: Китай
Студия: Beijing Century Media Culture, Beijing Dongfang International Cultural Communications Company, Bona International Film Group
Продолжительность: 02:03:10
Перевод: Любительский многоголосый

Файл
Кодек: MPEG-4 AVC
Качество: BDRip 1080
Видео: 8412 Кбит/с, 1920х816, 24 кадр/с

Аудио 1: Русский (AC3, 6 ch, 640 Кбит/с) - Любительский многоголосый (GreenРай Studio)
Аудио 2: Китайский (DTS, 6 ch, 1509 Кбит/с)
Аудио 3: Английский (DTS, 6 ch, 1509 Кбит/с)
Субтитры: Английские

АНОНСЫ ПОПУЛЯРНЫХ РАЗДАЧ

Состав дикторов: Анастасия Гайдаржи, Руслан Чериев, Андрей Данилко
Руководитель проекта и координатор: Евгений Овчаренко
Организатор и координатор: Никита Марков
Пиар менеджер студии: Игорь Обухов
Техническая поддержка: Александр Методий

Общее
Уникальный идентификатор : 197136029885893700054305951254962415357 (0x944F04AFCCA5856E9C718B9F9036A6FD)
Полное имя : D:\новые фильмы 46\Wolf.Warrior.2.2017.BDRip 1080p.mkv
Формат : Matroska
Версия формата : Version 4 / Version 2
Размер файла : 10,0 Гбайт
Продолжительность : 2 ч. 3 м.
Общий поток : 11,6 Мбит/сек
Дата кодирования : UTC 2018-02-11 15:50:37
Программа кодирования : mkvmerge v6.0.0 ('Coming Up For Air') built on Jan 20 2013 09:52:00
Библиотека кодирования : libebml v1.3.0 + libmatroska v1.4.0
DURATION : 01:58:00.542000000
NUMBER_OF_FRAMES : 1005
NUMBER_OF_BYTES : 23862
_STATISTICS_WRITING_APP : mkvmerge v8.3.0 ('Over the Horizon') 64bit
_STATISTICS_WRITING_DATE_UTC : 2018-01-16 09:36:34
_STATISTICS_TAGS : BPS DURATION NUMBER_OF_FRAMES NUMBER_OF_BYTES

Видео
Идентификатор : 1
Формат : AVC
Формат/Информация : Advanced Video Codec
Профиль формата : High@L4.1
Параметр CABAC формата : Да
Параметр ReFrames формата : 5 кадров
Идентификатор кодека : V_MPEG4/ISO/AVC
Продолжительность : 2 ч. 3 м.
Битрейт : 8412 Кбит/сек
Ширина : 1920 пикселей
Высота : 816 пикселей
Соотношение сторон : 2,35:1
Режим частоты кадров : Постоянный
Частота кадров : 24,000 кадра/сек
Цветовое пространство : YUV
Субдискретизация насыщенности : 4:2:0
Битовая глубина : 8 бит
Тип развёртки : Прогрессивная
Бит/(Пиксели*Кадры) : 0.224
Размер потока : 7,04 Гбайт (70%)
Заголовок : Wolf.Warrior.2.2017.BDRip 1080p
Библиотека кодирования : x264 core 155 r2893 b00bcaf
Настройки программы : cabac=1 / ref=5 / deblock=1:-3:-3 / analyse=0x3:0x133 / me=umh / subme=9 / psy=1 / psy_rd=1.00:0.00 / mixed_ref=1 / me_range=16 / chroma_me=1 / trellis=2 / 8x8dct=1 / cqm=0 / deadzone=21,11 / fast_pskip=0 / chroma_qp_offset=-2 / threads=12 / lookahead_threads=1 / sliced_threads=0 / nr=0 / decimate=1 / interlaced=0 / bluray_compat=0 / constrained_intra=0 / bframes=3 / b_pyramid=2 / b_adapt=1 / b_bias=0 / direct=3 / weightb=1 / open_gop=0 / weightp=2 / keyint=240 / keyint_min=24 / scenecut=40 / intra_refresh=0 / rc_lookahead=50 / rc=2pass / mbtree=1 / bitrate=8412 / ratetol=1.0 / qcomp=0.60 / qpmin=0 / qpmax=69 / qpstep=4 / cplxblur=20.0 / qblur=0.5 / ip_ratio=1.40 / aq=1:1.00
Язык : English
Default : Да
Forced : Нет
DURATION : 02:03:10.959000000
NUMBER_OF_FRAMES : 177383
NUMBER_OF_BYTES : 7770970711
_STATISTICS_WRITING_APP : mkvmerge v8.3.0 ('Over the Horizon') 64bit
_STATISTICS_WRITING_DATE_UTC : 2018-01-16 09:36:34
_STATISTICS_TAGS : BPS DURATION NUMBER_OF_FRAMES NUMBER_OF_BYTES

Аудио #1
Идентификатор : 2
Формат : AC-3
Формат/Информация : Audio Coding 3
Расширение режима : CM (complete main)
Параметр Endianness формата : Big
Идентификатор кодека : A_AC3
Продолжительность : 2 ч. 3 м.
Вид битрейта : Постоянный
Битрейт : 192 Кбит/сек
Каналы : 2 канала
Расположение каналов : Front: L R
Частота : 48,0 КГц
Битовая глубина : 16 бит
Метод сжатия : С потерями
Задержка видео : 720 мс.
Размер потока : 169 Мбайт (2%)
Заголовок : Creampie Studio
Язык : Russian
Default : Да
Forced : Да

Аудио #2
Идентификатор : 3
Формат : DTS
Формат/Информация : Digital Theater Systems
Режим : 16
Параметр Endianness формата : Big
Идентификатор кодека : A_DTS
Продолжительность : 2 ч. 3 м.
Вид битрейта : Постоянный
Битрейт : 1509 Кбит/сек
Каналы : 6 каналов
Расположение каналов : Front: L C R, Side: L R, LFE
Частота : 48,0 КГц
Битовая глубина : 24 бит
Метод сжатия : С потерями
Размер потока : 1,30 Гбайт (13%)
Заголовок : Chinese
Язык : Chinese
Default : Нет
Forced : Нет

Аудио #3
Идентификатор : 4
Формат : DTS
Формат/Информация : Digital Theater Systems
Режим : 16
Параметр Endianness формата : Big
Идентификатор кодека : A_DTS
Продолжительность : 2 ч. 3 м.
Вид битрейта : Постоянный
Битрейт : 1509 Кбит/сек
Каналы : 6 каналов
Расположение каналов : Front: L C R, Side: L R, LFE
Частота : 48,0 КГц
Битовая глубина : 24 бит
Метод сжатия : С потерями
Размер потока : 1,30 Гбайт (13%)
Заголовок : English
Язык : English
Default : Нет
Forced : Нет

Текст #1
Идентификатор : 5
Формат : UTF-8
Идентификатор кодека : S_TEXT/UTF8
Идентификатор кодека/Информация : UTF-8 Plain Text
Заголовок : English forced
Язык : English
Default : Да
Forced : Да

Текст #2
Идентификатор : 6
Формат : UTF-8
Идентификатор кодека : S_TEXT/UTF8
Идентификатор кодека/Информация : UTF-8 Plain Text
Заголовок : English
Язык : English
Default : Нет
Forced : Нет

Меню
00:00:00.000 : en:00:00:00.000
00:11:02.083 : en:00:11:02.083
00:19:17.792 : en:00:19:17.792
00:27:45.042 : en:00:27:45.042
00:35:09.583 : en:00:35:09.583
00:47:07.708 : en:00:47:07.708
00:55:56.417 : en:00:55:56.417
01:12:03.625 : en:01:12:03.625
01:18:15.500 : en:01:18:15.500
01:28:42.917 : en:01:28:42.917
01:34:17.375 : en:01:34:17.375
01:41:50.917 : en:01:41:50.917
01:56:36.500 : en:01:56:36.500



Скачать Война.волков.2.Wolf.Warrior.2.Zhan.lang.2.(драма.боевик.военный).[2017.драма.боевик.военный.BDRip].[1080p].[MVO.(GreenРай.Studio)]+[Eng]+[Sub.Eng].torrent без регистрации
Золото ЗОЛОТАЯ РАЗДАЧА! СКАЧАННОЕ НЕ ЗАСЧИТЫВАЕТСЯ! Золото
Дата: Зарегистрирован   [ Тип: внутренний ] Как тут cкачать?
MAGNET ссылка
MAGNET ссылка


Скачать .torrent

51 KB

Статус: проверено DHT
Скачан: торрент - 29 раз, раздача полностью - 37 раз
Размер: 10 GB
Оценка:  - (Голосов: 0)
Поблагодарили: 2
Поделиться ссылкой на эту раздачу с друзьями:
В контактеFacebookОдноклассникиTwitterLivejournalМой МирLiveinternet
 

 
Показать сообщения:    


Вы не можете начинать темы
Вы не можете отвечать на сообщения
Вы не можете редактировать свои сообщения
Вы не можете удалять свои сообщения
Вы не можете голосовать в опросах
Вы не можете прикреплять файлы к сообщениям
Вы можете скачивать файлы