Loading...
Error

Скачать Судный день / Doomsday (Нил Маршалл) [2008, фантастика, боевик, триллер, BDRip] [1080p] [Театральная версия] [Dub (лицензия)]+[Eng]+[Sub Rus,, Eng]x2 торрент без регистрации

Статистика раздачи
Размер:  7,76 GB   |    Скачан:  22 раза
Сидов:  1  [  0 KB/s  ]  
 
 
 
Автор Сообщение

Marsianka

[] 

Информация о фильме
Название: Судный день
Оригинальное название: Doomsday
Год выхода: 2008
Жанр: фантастика, боевик, триллер
Режиссер: Нил Маршалл
В ролях: Рона Митра, Боб Хоскинс, Дэвид О’Хара, Адриан Лестер, Рик Уорден, Шон Пертуи, Даррен Морфитт, МайАнна Бёринг, Малкольм МакДауэлл, Кэрин Петерсон

О фильме: Великобритания, недалёкое будущее. Смертельный и совершенно неизученный вирус, названный «Жнецом» («Reaper Virus») обрушился на страну, убивая десятки и сотни тысяч жителей. Не имея возможности решить проблему, правительство решает изолировать очаг заразы от не инфицированной местности, построив вокруг территории буйства «Жнеца» стену.

Проходит 30 лет, но вирус снова заявил о себе. Тогда было решено послать в заражённую область первоклассную команду спецназа для поисков возможных методов борьбы с вирусом. Ради выполнения цели и сохранения жизней ребятам придется пробиваться через настоящий оживший кошмар…



Выпущено: Rogue Pictures
Продолжительность: 01:44:30
Перевод: Дублированный (лицензия)

Файл
Кодек: x264
Качество: BDRip
Видео: 1920x1080 (16:9), 25 fps, 9736 kbps
Аудио #1: AC-3, 6 ch, 448 kbps (Rus)
Аудио #2: AC-3, 6 ch, 448 kbps (Eng)
Субтитры: Русские, Английские
Скачать: сэмпл
Общее
Уникальный идентификатор : 186537936608702099315560977357603127794 (0x8C55E6587FCC0C63A69DEEDDCCE4C1F2)
Полное имя : Doomsday.2008.BDRip.1080p.Rus.Eng.mkv
Формат : Matroska
Версия формата : Version 2
Размер файла : 7,76 Гбайт
Продолжительность : 1 ч. 44 м.
Общий поток : 10,6 Мбит/сек
Название фильма : Судный день / Doomsday (2008)
Дата кодирования : UTC 2012-07-26 07:54:30
Программа кодирования : mkvmerge v5.7.0 ('The Whirlwind') built on Jul 8 2012 20:08:51
Библиотека кодирования : libebml v1.2.3 + libmatroska v1.3.0

Видео
Идентификатор : 1
Формат : AVC
Формат/Информация : Advanced Video Codec
Профиль формата : High@L4.1
Параметр CABAC формата : Да
Параметр ReFrames формата : 4 кадра
Идентификатор кодека : V_MPEG4/ISO/AVC
Продолжительность : 1 ч. 44 м.
Битрейт : 9736 Кбит/сек
Ширина : 1920 пикселей
Высота : 1080 пикселей
Соотношение сторон : 16:9
Частота кадров : 25,000 кадров/сек
Цветовое пространство : YUV
Субдискретизация насыщенности : 4:2:0
Битовая глубина : 8 бит
Тип развёртки : Прогрессивная
Бит/(Пиксели*Кадры) : 0.188
Размер потока : 6,95 Гбайт (90%)
Заголовок : Release by AlexKa
Библиотека кодирования : x264 core 125 r2208 d9d2288
Настройки программы : cabac=1 / ref=4 / deblock=1:0:0 / analyse=0x3:0x133 / me=umh / subme=10 / psy=1 / psy_rd=1.00:0.10 / mixed_ref=1 / me_range=32 / chroma_me=1 / trellis=2 / 8x8dct=1 / cqm=0 / deadzone=21,11 / fast_pskip=0 / chroma_qp_offset=-3 / threads=12 / lookahead_threads=2 / sliced_threads=0 / nr=0 / decimate=0 / interlaced=0 / bluray_compat=0 / constrained_intra=0 / bframes=5 / b_pyramid=2 / b_adapt=2 / b_bias=0 / direct=3 / weightb=1 / open_gop=0 / weightp=2 / keyint=250 / keyint_min=25 / scenecut=40 / intra_refresh=0 / rc=2pass / mbtree=0 / bitrate=9736 / ratetol=1.0 / qcomp=0.60 / qpmin=0 / qpmax=69 / qpstep=4 / cplxblur=20.0 / qblur=0.5 / ip_ratio=1.40 / pb_ratio=1.30 / aq=1:0.80
Язык : English

Аудио #1
Идентификатор : 2
Формат : AC-3
Формат/Информация : Audio Coding 3
Расширение режима : CM (complete main)
Идентификатор кодека : A_AC3
Продолжительность : 1 ч. 44 м.
Вид битрейта : Постоянный
Битрейт : 448 Кбит/сек
Каналы : 6 каналов
Расположение каналов : Front: L C R, Side: L R, LFE
Частота : 48,0 КГц
Битовая глубина : 16 бит
Метод сжатия : С потерями
Размер потока : 335 Мбайт (4%)
Заголовок : Rus
Язык : Russian

Аудио #2
Идентификатор : 3
Формат : AC-3
Формат/Информация : Audio Coding 3
Расширение режима : CM (complete main)
Идентификатор кодека : A_AC3
Продолжительность : 1 ч. 44 м.
Вид битрейта : Постоянный
Битрейт : 448 Кбит/сек
Каналы : 6 каналов
Расположение каналов : Front: L C R, Side: L R, LFE
Частота : 48,0 КГц
Битовая глубина : 16 бит
Метод сжатия : С потерями
Размер потока : 335 Мбайт (4%)
Заголовок : Eng
Язык : English

Текст #1
Идентификатор : 4
Формат : UTF-8
Идентификатор кодека : S_TEXT/UTF8
Идентификатор кодека/Информация : UTF-8 Plain Text
Заголовок : Rus
Язык : Russian

Текст #2
Идентификатор : 5
Формат : UTF-8
Идентификатор кодека : S_TEXT/UTF8
Идентификатор кодека/Информация : UTF-8 Plain Text
Заголовок : Eng
Язык : English

Меню
00:00:00.000 : :Chapter 01
00:09:59.079 : :Chapter 02
00:19:59.640 : :Chapter 03
00:30:00.277 : :Chapter 04
00:40:00.119 : :Chapter 05
00:50:00.719 : :Chapter 06
00:59:57.159 : :Chapter 07
01:10:01.000 : :Chapter 08
01:20:00.000 : :Chapter 09
01:29:59.520 : :Chapter 10
01:37:17.920 : :Chapter 11
01:44:29.439 : :Chapter 12



Скачать Судный.день.Doomsday.(Нил.Маршалл).[2008.фантастика.боевик.триллер.BDRip].[1080p].[Театральная.версия].[Dub.(лицензия)]+[Eng]+[Sub.Rus.Eng]x2.torrent без регистрации
Золото ЗОЛОТАЯ РАЗДАЧА! СКАЧАННОЕ НЕ ЗАСЧИТЫВАЕТСЯ! Золото
Дата: Зарегистрирован   [ Тип: внутренний ] Как тут cкачать?
MAGNET ссылка
MAGNET ссылка


Скачать .torrent

40 KB

Статус: проверено DHT
Скачан: торрент - 22 раз, раздача полностью - 3 раз
Размер: 7,76 GB
Оценка:  - (Голосов: 0)
Поблагодарили: 0
Поделиться ссылкой на эту раздачу с друзьями:
В контактеFacebookОдноклассникиTwitterLivejournalМой МирLiveinternet
 

 
Показать сообщения:    


Вы не можете начинать темы
Вы не можете отвечать на сообщения
Вы не можете редактировать свои сообщения
Вы не можете удалять свои сообщения
Вы не можете голосовать в опросах
Вы не можете прикреплять файлы к сообщениям
Вы можете скачивать файлы