Loading...
Error

Скачать Помни / Memento (Кристофер Нолан) [2000, триллер, детектив, драма, криминал, HDRip-AVC] [Dub]+[Sub Rus, Eng]x2 торрент без регистрации

Статистика раздачи
Размер:  746 MB   |    Скачан:  23 раза
Сидов:  1  [  0 KB/s  ]  
 
 
 
Автор Сообщение

Marsianka

[] 

Информация о фильме
Название: Помни
Оригинальное название: Memento
Год выхода: 2000
Жанр: триллер, детектив, драма, криминал
Режиссер: Кристофер Нолан / Christopher Nolan
В ролях: Гай Пирс, Кэрри-Энн Мосс, Джо Пантольяно, Марк Бун Джуниор, Расс Фега, Джоржа Фокс, Стивен Тоболовски, Харриет Сэнсом Харрис, Томас Леннон, Каллум Кит Ренни

О фильме: Леонард Шелби изысканно и дорого одет, ездит на новеньком «Ягуаре», но проживает в дешевых мотелях. Его цель в жизни — найти убийцу жены. Его проблема — редкая форма амнезии, потеря короткой памяти, помня все до убийства, он не помнит, что было пятнадцать минут назад.



Страна: США
Студия: Newmarket Capital Group, Summit Entertainment, I Remember Productions, Team Todd
Продолжительность: 01:53:26
Перевод: Дублированный

Файл
Формат: MKV
Качество: HDRip-AVC | 10th Anniversary Special Edition
Видео: MPEG-4 AVC, 768x328 (2.35:1) at 23.976 fps, ~854 kbps
Аудио: AAC-HE, 2 ch, 48 kHz, ~64 kbps
Субтитры: русские, английские
Навигация по главам: Есть
Семпл
General
Unique ID : 232130119585134213922425590372965484678 (0xAEA2A2843D66E2AE92CEE1E3BFB70886)
Complete name : C:UsersDownloadsMementoMemento.2000.HDRip-AVC.mkv
Format : Matroska
Format version : Version 4 / Version 2
File size : 746 MiB
Duration : 1 h 53 min
Overall bit rate : 919 kb/s
Movie name : Помни / Memento (2000)
Encoded date : UTC 2018-02-12 17:20:08
Writing application : mkvmerge v20.0.0 ('I Am The Sun') 64-bit
Writing library : libebml v1.3.5 + libmatroska v1.4.8

Video
ID : 1
Format : AVC
Format/Info : Advanced Video Codec
Format profile : High@L4.1
Format settings : CABAC / 10 Ref Frames
Format settings, CABAC : Yes
Format settings, RefFrames : 10 frames
Codec ID : V_MPEG4/ISO/AVC
Duration : 1 h 53 min
Bit rate : 854 kb/s
Width : 768 pixels
Height : 328 pixels
Display aspect ratio : 2.35:1
Frame rate mode : Constant
Frame rate : 23.976 (24000/1001) FPS
Color space : YUV
Chroma subsampling : 4:2:0
Bit depth : 8 bits
Scan type : Progressive
Bits/(Pixel*Frame) : 0.141
Stream size : 692 MiB (93%)
Writing library : x264 core 155 r2901M 7d0ff22
Encoding settings : cabac=1 / ref=10 / deblock=1:-3:-2 / analyse=0x3:0x133 / me=umh / subme=11 / psy=1 / psy_rd=1.00:0.05 / mixed_ref=1 / me_range=32 / chroma_me=0 / trellis=2 / 8x8dct=1 / cqm=0 / deadzone=21,11 / fast_pskip=0 / chroma_qp_offset=-3 / threads=4 / lookahead_threads=1 / sliced_threads=0 / nr=0 / decimate=0 / interlaced=0 / bluray_compat=0 / constrained_intra=0 / bframes=10 / b_pyramid=2 / b_adapt=2 / b_bias=0 / direct=3 / weightb=1 / open_gop=0 / weightp=2 / keyint=240 / keyint_min=24 / scenecut=40 / intra_refresh=0 / rc=2pass / mbtree=0 / bitrate=854 / ratetol=1.0 / qcomp=0.60 / qpmin=0 / qpmax=69 / qpstep=4 / cplxblur=20.0 / qblur=0.5 / ip_ratio=1.40 / pb_ratio=1.30 / aq=3:0.95
Language : English
Default : Yes
Forced : No

Audio
ID : 2
Format : AAC
Format/Info : Advanced Audio Codec
Format profile : HE-AAC / LC
Format settings : Explicit
Codec ID : A_AAC-2
Duration : 1 h 53 min
Bit rate : 64.0 kb/s
Channel(s) : 2 channels
Channel positions : Front: L R
Sampling rate : 48.0 kHz / 24.0 kHz
Frame rate : 23.438 FPS (1024 SPF)
Compression mode : Lossy
Delay relative to video : 31 ms
Stream size : 51.9 MiB (7%)
Language : Russian
Default : Yes
Forced : No

Text #1
ID : 3
Format : UTF-8
Codec ID : S_TEXT/UTF8
Codec ID/Info : UTF-8 Plain Text
Duration : 1 h 50 min
Bit rate : 102 b/s
Count of elements : 1212
Stream size : 82.8 KiB (0%)
Title : Full
Language : Russian
Default : Yes
Forced : No

Text #2
ID : 4
Format : UTF-8
Codec ID : S_TEXT/UTF8
Codec ID/Info : UTF-8 Plain Text
Duration : 1 h 47 min
Bit rate : 65 b/s
Count of elements : 1228
Stream size : 51.8 KiB (0%)
Title : Full
Language : English
Default : No
Forced : No

Menu
00:00:00.000 : :Chapter 01
00:06:25.802 : :Chapter 02
00:11:06.457 : :Chapter 03
00:16:13.097 : :Chapter 04
00:22:17.836 : :Chapter 05
00:28:30.583 : :Chapter 06
00:39:26.822 : :Chapter 07
00:48:56.767 : :Chapter 08
01:02:41.674 : :Chapter 09
01:09:57.318 : :Chapter 10
01:17:18.133 : :Chapter 11
01:21:44.274 : :Chapter 12
01:26:33.354 : :Chapter 13
01:33:58.966 : :Chapter 14
01:40:48.667 : :Chapter 15
01:49:18.552 : :Chapter 16
01:53:26.382 : :Chapter 17



Скачать Помни.Memento.(Кристофер.Нолан).[2000.триллер.детектив.драма.криминал.HDRip-AVC].[Dub]+[Sub.Rus.Eng]x2.torrent без регистрации
Золото ЗОЛОТАЯ РАЗДАЧА! СКАЧАННОЕ НЕ ЗАСЧИТЫВАЕТСЯ! Золото
Дата: Зарегистрирован   [ Тип: внутренний ] Как тут cкачать?
MAGNET ссылка
MAGNET ссылка


Скачать .torrent

15 KB

Статус: проверено DHT
Скачан: торрент - 23 раз, раздача полностью - 1 раз
Размер: 746 MB
Оценка:  - (Голосов: 0)
Поблагодарили: 2
Поделиться ссылкой на эту раздачу с друзьями:
В контактеFacebookОдноклассникиTwitterLivejournalМой МирLiveinternet
 

 
Показать сообщения:    


Вы не можете начинать темы
Вы не можете отвечать на сообщения
Вы не можете редактировать свои сообщения
Вы не можете удалять свои сообщения
Вы не можете голосовать в опросах
Вы не можете прикреплять файлы к сообщениям
Вы можете скачивать файлы