Loading...
Error

Скачать Синьор Робинзон / Il signor Robinson, mostruosa storia d'amore e d'avventure (Серджио Корбуччи) [1976, комедия, приключения, BDRip] [720p] [Dub]+[MVO]x2+[DVO]+[Ita.]+[Sub Rus] торрент без регистрации

Статистика раздачи
Размер:  5,82 GB   |    Скачан:  9 раз
Сидов:  1  [  0 KB/s  ]  
 
 
 
Автор Сообщение

Marsianka

[] 

Информация о фильме
Название: Синьор Робинзон
Оригинальное название: Il signor Robinson, mostruosa storia d'amore e d'avventure
Год выпуска: 1976
Жанр: комедия, приключения
Выпущено: Италия, Vides Cinematografica
Режиссер: Серджио Корбуччи
В ролях: Паоло Вилладжо, Зеуди Арайа, Анна Ногара, Перси Хоган

О фильме: Что делать современному высокоцивилизованному человеку, отправляющемуся в круиз по океану и попадающему в результате кораблекрушения на необитаемый остров? Правильно! Главное - не впадать в панику, а собраться с мыслями и, вспомнив знаменитого Робинзона Крузо, начать потихонечку обживаться. Но тут надо быть очень осторожным, так как даже неожиданное, но такое радостное обретение новоявленным Робинзоном милой Пятницы, может привести к некоторым сложностям: необитаемый ещё недавно остров на деле может оказаться не так уж необитаем, из-за ваших горячих чувств к желанной Пятнице великий бог Магду может сильно разгневаться, посылая громы и молнии на голову чужеземца, вы же рискуете оказаться главным ингредиентом в чане с очистительным варевом. Итак, будьте предельно осторожны, попав на необитаемый остров...



Продолжительность: 01:47:59
Дублированный, профессиональный многоголосый, профессиональный двухголосый
Субтитры: Русские
Файл
Качество: BDRip (720p)
Видео: MPEG-4 AVC, 6947 Кбит/с, 1280x694
Аудио #1: Русский, AC3, 2 ch, 192 Кбит/с | Советский дубляж + MVO
Аудио #2: Русский, AC3, 2 ch, 192 Кбит/с | DVO (НТВ, Н.Варлей, Б.Токарев)
Аудио #3: Русский, AC3, 2 ch, 192 Кбит/с | MVO (РТР)
Аудио #4: Итальянский, AC3, 2 ch, 192 Кбит/с

Формат : Matroska
Версия формата : Version 2
Размер файла : 5,82 Гбайт
Продолжительность : 1 ч. 47 м.
Общий поток : 7720 Кбит/сек
Название фильма : ~V ad~
Дата кодирования : UTC 2018-02-13 01:15:42
Программа кодирования : mkvmerge v6.5.0 ('Isn't she lovely') built on Oct 20 2013 12:50:05
Библиотека кодирования : libebml v1.3.0 + libmatroska v1.4.1
Обложка : Yes
Attachments : cover.jpg

Видео
Идентификатор : 1
Формат : AVC
Формат/Информация : Advanced Video Codec
Профиль формата : High@L4.1
Настройки формата : CABAC / 9 Ref Frames
Параметр CABAC формата : Да
Параметр RefFrames формата : 9 кадров
Идентификатор кодека : V_MPEG4/ISO/AVC
Продолжительность : 1 ч. 47 м.
Битрейт : 6947 Кбит/сек
Ширина : 1280 пикселей
Высота : 694 пикселя
Соотношение сторон : 1,85:1
Режим частоты кадров : Постоянный
Частота кадров : 24,000 кадра/сек
Цветовое пространство : YUV
Субдискретизация насыщенности : 4:2:0
Битовая глубина : 8 бит
Тип развёртки : Прогрессивная
Бит/(Пиксели*Кадры) : 0.326
Размер потока : 5,13 Гбайт (88%)
Заголовок : ~V~
Библиотека кодирования : x264 core 152 r2851 ba24899
Настройки кодирования : cabac=1 / ref=9 / deblock=1:-3:-3 / analyse=0x3:0x133 / me=umh / subme=11 / psy=1 / psy_rd=1.00:0.00 / mixed_ref=1 / me_range=32 / chroma_me=1 / trellis=2 / 8x8dct=1 / cqm=0 / deadzone=21,11 / fast_pskip=0 / chroma_qp_offset=-2 / threads=12 / lookahead_threads=1 / sliced_threads=0 / nr=0 / decimate=0 / interlaced=0 / bluray_compat=0 / constrained_intra=0 / bframes=9 / b_pyramid=2 / b_adapt=2 / b_bias=0 / direct=3 / weightb=1 / open_gop=0 / weightp=2 / keyint=240 / keyint_min=24 / scenecut=40 / intra_refresh=0 / rc=2pass / mbtree=0 / bitrate=6947 / ratetol=1.0 / qcomp=0.60 / qpmin=0 / qpmax=69 / qpstep=4 / cplxblur=20.0 / qblur=0.5 / ip_ratio=1.30 / pb_ratio=1.30 / aq=3:1.00
Язык : Английский
Default : Да
Forced : Нет

Аудио #1
Идентификатор : 2
Формат : AC-3
Формат/Информация : Audio Coding 3
Идентификатор кодека : A_AC3
Продолжительность : 1 ч. 47 м.
Вид битрейта : Постоянный
Битрейт : 192 Кбит/сек
Каналы : 2 канала
Расположение каналов : Front: L R
Частота : 48,0 КГц
Частота кадров : 31,250 кадров/сек (1536 SPF)
Битовая глубина : 16 бит
Метод сжатия : С потерями
Размер потока : 148 Мбайт (2%)
Заголовок : DUB [Советский дубляж + MVO ]
Язык : Русский
Service Kind : Complete Main
Default : Да
Forced : Нет

Аудио #2
Идентификатор : 3
Формат : AC-3
Формат/Информация : Audio Coding 3
Идентификатор кодека : A_AC3
Продолжительность : 1 ч. 47 м.
Вид битрейта : Постоянный
Битрейт : 192 Кбит/сек
Каналы : 2 канала
Расположение каналов : Front: L R
Частота : 48,0 КГц
Частота кадров : 31,250 кадров/сек (1536 SPF)
Битовая глубина : 16 бит
Метод сжатия : С потерями
Размер потока : 148 Мбайт (2%)
Заголовок : DVO[НТВ- Н.Варлей, Б.Токарев]
Язык : Русский
Service Kind : Complete Main
Default : Нет
Forced : Нет

Аудио #3
Идентификатор : 4
Формат : AC-3
Формат/Информация : Audio Coding 3
Идентификатор кодека : A_AC3
Продолжительность : 1 ч. 47 м.
Вид битрейта : Постоянный
Битрейт : 192 Кбит/сек
Каналы : 2 канала
Расположение каналов : Front: L R
Частота : 48,0 КГц
Частота кадров : 31,250 кадров/сек (1536 SPF)
Битовая глубина : 16 бит
Метод сжатия : С потерями
Размер потока : 148 Мбайт (2%)
Заголовок : МVO[РТР]
Язык : Русский
Service Kind : Complete Main
Default : Нет
Forced : Нет

Аудио #4
Идентификатор : 5
Формат : AC-3
Формат/Информация : Audio Coding 3
Идентификатор кодека : A_AC3
Продолжительность : 1 ч. 47 м.
Вид битрейта : Постоянный
Битрейт : 192 Кбит/сек
Каналы : 2 канала
Расположение каналов : Front: L R
Частота : 48,0 КГц
Частота кадров : 31,250 кадров/сек (1536 SPF)
Битовая глубина : 16 бит
Метод сжатия : С потерями
Размер потока : 148 Мбайт (2%)
Язык : Italian
Service Kind : Complete Main
Default : Нет
Forced : Нет

Текст
Идентификатор : 6
Формат : UTF-8
Идентификатор кодека : S_TEXT/UTF8
Идентификатор кодека/Информация : UTF-8 Plain Text
Язык : Русский
Default : Нет
Forced : Нет

Меню
00:00:00.000 : :Chapter 1
00:08:35.958 : :Chapter 2
00:18:13.333 : :Chapter 3
00:27:50.542 : :Chapter 4
00:36:42.708 : :Chapter 5
00:44:43.000 : :Chapter 6
00:54:15.000 : :Chapter 7
01:06:29.708 : :Chapter 8
01:14:19.792 : :Chapter 9
01:21:47.333 : :Chapter 10
01:34:09.542 : :Chapter 11
Сэмпл
Релиз от:



Скачать Синьор.Робинзон.Il.signor.Robinson.mostruosa.storia.d'amore.e.d'avventure.(Серджио.Корбуччи).[1976.комедия.приключения.BDRip].[720p].[Dub]+[MVO]x2+[DVO]+[Ita.]+[Sub.Rus].torrent без регистрации
Золото ЗОЛОТАЯ РАЗДАЧА! СКАЧАННОЕ НЕ ЗАСЧИТЫВАЕТСЯ! Золото
Дата: Зарегистрирован   [ Тип: внутренний ] Как тут cкачать?
MAGNET ссылка
MAGNET ссылка


Скачать .torrent

16 KB

Статус: проверено DHT
Скачан: торрент - 9 раз, раздача полностью - 1 раз
Размер: 5,82 GB
Оценка:  - (Голосов: 0)
Поблагодарили: 0
Поделиться ссылкой на эту раздачу с друзьями:
В контактеFacebookОдноклассникиTwitterLivejournalМой МирLiveinternet
 

 
Показать сообщения:    


Вы не можете начинать темы
Вы не можете отвечать на сообщения
Вы не можете редактировать свои сообщения
Вы не можете удалять свои сообщения
Вы не можете голосовать в опросах
Вы не можете прикреплять файлы к сообщениям
Вы можете скачивать файлы