Loading...
Error

Скачать Ритуал / The Ritual Дэвид Брукне) [2017, ужасы, WEBRip] [1080p] [MVO (HDrezka Studio)]+[Eng]+[Sub Rus, Eng] торрент без регистрации

Статистика раздачи
Размер:  3,25 GB   |    Скачан:  41 раз
Сидов:  8  [  0 KB/s  ]   Личеров:  1  [  0 KB/s  ]  
 
 
 
Автор Сообщение

МихаНЕзатор

[] 

Информация о фильме
Название: Ритуал
Оригинальное название: The Ritual
Год выпуска: 2017
Страна: Великобритания
Жанр: ужасы
Режиссер: Дэвид Брукнер

В ролях: Рейф Сполл (Luke), Роб Джеймс-Колльер (Hutch), Сэм Тротон (Dom), Аршер Али (Phil), Пол Рейд (Robert), Керри МакЛин (Gayle), Мария Эрвольтер (Sara), Jacob James Beswick (Fiend), Francesca Mula (Witch)

Описание: Четверо бывших одноклассников отправляются в поход по горам и лесам, чтобы почтить память погибшего друга. Сначала они придерживаются общепринятого маршрута, но затем решают немного прогуляться в сторону от натоптанной тропы и находят в лесу странный дом.



Продолжительность: 01:34:42
Перевод: Любительский многоголосый [HDrezka Studio]
Субтитры: русские (полные - FOCS - ненормативная лексика!), английские
Примечание: Релиз без рекламы

Качество: WEBRip 1080p
Формат: MKV
Видео: AVC, 1920x960 (2.000), 4376 kbps, 23,976 fps, 0,099 bpp
Аудио №1: русский / AAC LC / 2.0 / 48 kHz / 84 kbps / |MVO|
Аудио №2: английский / E-AC-3 / 5.1 / 48 kHz / 448 kbps /

АНОНСЫ ПОПУЛЯРНЫХ РАЗДАЧ

General
Unique ID : 117426044849454743552593358715658336802 (0x58576F00955B4672E3C021E5AF327A22)
Complete name : E:the.ritual.2018.1080p.webrip.x264.MVO.mkv
Format : Matroska
Format version : Version 4 / Version 2
File size : 3.25 GiB
Duration : 1 h 34 min
Overall bit rate : 4 910 kb/s
Encoded date : UTC 2018-02-12 21:40:43
Writing application : mkvmerge v20.0.0 ('I Am The Sun') 64-bit
Writing library : libebml v1.3.5 + libmatroska v1.4.8

Video
ID : 1
Format : AVC
Format/Info : Advanced Video Codec
Format profile : High@L4.1
Format settings, CABAC : Yes
Format settings, ReFrames : 4 frames
Codec ID : V_MPEG4/ISO/AVC
Duration : 1 h 34 min
Bit rate : 4 376 kb/s
Width : 1 920 pixels
Height : 960 pixels
Display aspect ratio : 2.000
Frame rate mode : Constant
Frame rate : 23.976 (24000/1001) FPS
Color space : YUV
Chroma subsampling : 4:2:0
Bit depth : 8 bits
Scan type : Progressive
Bits/(Pixel*Frame) : 0.099
Stream size : 2.89 GiB (89%)
Writing library : x264 core 155 r2901 7d0ff22
Encoding settings : cabac=1 / ref=4 / deblock=1:-3:-3 / analyse=0x3:0x113 / me=umh / subme=8 / psy=1 / psy_rd=1.00:0.15 / mixed_ref=1 / me_range=16 / chroma_me=1 / trellis=2 / 8x8dct=1 / cqm=0 / deadzone=21,11 / fast_pskip=0 / chroma_qp_offset=-2 / threads=128 / lookahead_threads=7 / sliced_threads=0 / nr=0 / decimate=1 / interlaced=0 / bluray_compat=0 / constrained_intra=0 / bframes=3 / b_pyramid=2 / b_adapt=2 / b_bias=0 / direct=3 / weightb=1 / open_gop=0 / weightp=2 / keyint=240 / keyint_min=23 / scenecut=40 / intra_refresh=0 / rc_lookahead=50 / rc=crf / mbtree=1 / crf=19.0 / qcomp=0.60 / qpmin=0 / qpmax=69 / qpstep=4 / ip_ratio=1.40 / aq=3:0.80
Language : English
Default : Yes
Forced : No

Audio #1
ID : 2
Format : AAC
Format/Info : Advanced Audio Codec
Format profile : LC
Codec ID : A_AAC
Duration : 1 h 34 min
Bit rate : 84.2 kb/s
Channel(s) : 2 channels
Channel positions : Front: L R
Sampling rate : 48.0 kHz
Frame rate : 46.875 FPS (1024 spf)
Compression mode : Lossy
Stream size : 57.1 MiB (2%)
Title : MVO | HDrezka Studio
Language : Russian
Default : Yes
Forced : No

Audio #2
ID : 3
Format : E-AC-3
Format/Info : Audio Coding 3
Format settings, Endianness : Big
Codec ID : A_EAC3
Duration : 1 h 34 min
Bit rate mode : Constant
Bit rate : 448 kb/s
Channel(s) : 6 channels
Channel positions : Front: L C R, Side: L R, LFE
Sampling rate : 48.0 kHz
Frame rate : 187.500 FPS (256 spf)
Compression mode : Lossy
Stream size : 302 MiB (9%)
Language : English
Default : No
Forced : No

Text #1
ID : 4
Format : UTF-8
Codec ID : S_TEXT/UTF8
Codec ID/Info : UTF-8 Plain Text
Duration : 1 h 26 min
Bit rate : 71 b/s
Count of elements : 809
Stream size : 45.0 KiB (0%)
Title : Full (FOCS)
Language : Russian
Default : Yes
Forced : No

Text #2
ID : 5
Format : UTF-8
Codec ID : S_TEXT/UTF8
Codec ID/Info : UTF-8 Plain Text
Duration : 1 h 29 min
Bit rate : 53 b/s
Count of elements : 1238
Stream size : 34.7 KiB (0%)
Language : English
Default : No
Forced : No



Скачать Ритуал.The.Ritual.Дэвид.Брукне).[2017.ужасы.WEBRip].[1080p].[MVO.(HDrezka.Studio)]+[Eng]+[Sub.Rus.Eng].torrent без регистрации
Золото ЗОЛОТАЯ РАЗДАЧА! СКАЧАННОЕ НЕ ЗАСЧИТЫВАЕТСЯ! Золото
Дата: Зарегистрирован   [ Тип: внешний ] Как тут cкачать?
MAGNET ссылка
MAGNET ссылка


Скачать .torrent

17 KB

Статус: проверено DHT
Скачан: торрент - 41 раз, раздача полностью - 56 раз
Размер: 3,25 GB
Оценка:  - (Голосов: 0)
Поблагодарили: 3
Поделиться ссылкой на эту раздачу с друзьями:
В контактеFacebookОдноклассникиTwitterLivejournalМой МирLiveinternet
 

 
Показать сообщения:    


Вы не можете начинать темы
Вы не можете отвечать на сообщения
Вы не можете редактировать свои сообщения
Вы не можете удалять свои сообщения
Вы не можете голосовать в опросах
Вы не можете прикреплять файлы к сообщениям
Вы можете скачивать файлы