Loading...
Error

Скачать Ритуал / The Ritual (Дэвид Брукнер) [2017, ужасы, WEB-DLRip-AVC] [DVO (Sky Voices)]+[Eng]+[Sub Rus, Eng] торрент без регистрации

Статистика раздачи
Размер:  2,18 GB   |    Скачан:  28 раз
Сидов:  3  [  2 KB/s  ]  
 
 
 
Автор Сообщение

МихаНЕзатор

[] 

Ритуал
The Ritual



Страна: Великобритания
Жанр: ужасы
Год выпуска: 2017
Режиссер: Дэвид Брукнер / David Bruckner

В ролях: Рейф Сполл, Роб Джеймс-Колльер, Сэм Тротон, Аршер Али, Пол Рейд, Керри МакЛин, Мария Эрвольтер, Jacob James Beswick, Francesca Mula

Описание: Четверо бывших одноклассников отправляются в поход по горам и лесам, чтобы почтить память погибшего друга. Сначала они придерживаются общепринятого маршрута, но затем решают немного прогуляться в сторону от натоптанной тропы и находят в лесу странный дом.

Релиз:

Автор рипа: stalkerok

Продолжительность: 01:34:06
Перевод: Любительский (двухголосый, закадровый) [ТО «Sky Voices»]
Субтитры: русские (полные - FOCS - ненормативная лексика!), английские (полные)
Оригинальная аудиодорожка: английский

Качество видео: WEB-DLRip-AVC [The.Ritual.2017.1080p.WEB-DL.DD5.1.H264-FGT]
Формат видео: MKV
Видео кодек: AVC
Аудио кодек: AC3
Видео: AVC, 2551 Кбит/сек, 1150*574 (2.003), 23,976 кадр/сек
Аудио #1: AC3, 384 Кбит/сек, 48 КГц, 5.1 - русский (ненормативная лексика!)
Аудио #2: AC3, 384 Кбит/сек, 48 КГц, 5.1 - английский
Навигация по главам: есть


---[Information] [12.02.2018 13:46:30] x264 [info]: frame I:874 Avg QP:13.10 size: 82241
---[Information] [12.02.2018 13:46:30] x264 [info]: frame P:34925 Avg QP:16.04 size: 27044
---[Information] [12.02.2018 13:46:30] x264 [info]: frame B:99575 Avg QP:17.96 size: 7853

Общее
Уникальный идентификатор : 254236962413468496088412626311592011781 (0xBF444204F649F19EA5D4BC9BB3CBE805)
Полное имя : M:$newThe Ritual (2017)The.Ritual.2017.WEB-DLRip-AVC.RUS.ENG.stalkerok.new-team.mkv
Формат : Matroska
Версия формата : Version 4 / Version 2
Размер файла : 2,18 Гбайт
Продолжительность : 1 ч. 34 м.
Общий поток : 3318 Кбит/сек
Название фильма : The Ritual (2017) (Rip by stalkerok)
Дата кодирования : UTC 2018-02-12 11:46:23
Программа кодирования : mkvmerge v8.6.1 ('Flying') 64bit
Библиотека кодирования : libebml v1.3.3 + libmatroska v1.4.4

Видео
Идентификатор : 5
Формат : AVC
Формат/Информация : Advanced Video Codec
Профиль формата : High@L4.1
Параметр CABAC формата : Да
Параметр ReFrames формата : 12 кадров
Идентификатор кодека : V_MPEG4/ISO/AVC
Продолжительность : 1 ч. 34 м.
Битрейт : 2551 Кбит/сек
Ширина : 1150 пикселей
Высота : 574 пикселя
Соотношение сторон : 2,003
Режим частоты кадров : Постоянный
Частота кадров : 23,976 (24000/1001) кадра/сек
Цветовое пространство : YUV
Субдискретизация насыщенности : 4:2:0
Битовая глубина : 8 бит
Тип развёртки : Прогрессивная
Бит/(Пиксели*Кадры) : 0.161
Размер потока : 1,67 Гбайт (77%)
Заголовок : The Ritual (2017) (Rip by stalkerok)
Библиотека кодирования : x264 core 152 r2851kMod ba24899
Настройки программы : cabac=1 / ref=12 / deblock=1:-3:-2 / analyse=0x3:0x133 / me=umh / subme=11 / psy=1 / fade_compensate=0.00 / psy_rd=1.00:0.00 / mixed_ref=1 / me_range=32 / chroma_me=1 / trellis=2 / 8x8dct=1 / cqm=0 / deadzone=21,11 / fast_pskip=0 / chroma_qp_offset=-2 / threads=12 / lookahead_threads=3 / sliced_threads=0 / nr=0 / decimate=0 / interlaced=0 / bluray_compat=0 / constrained_intra=0 / bframes=13 / b_pyramid=2 / b_adapt=2 / b_bias=0 / direct=3 / weightb=1 / open_gop=0 / weightp=2 / keyint=240 / keyint_min=23 / scenecut=40 / intra_refresh=0 / rc_lookahead=60 / rc=2pass / mbtree=0 / bitrate=2551 / ratetol=1.0 / qcomp=0.65 / qpmin=0 / qpmax=69 / qpstep=4 / cplxblur=20.0 / qblur=0.5 / vbv_maxrate=50000 / vbv_bufsize=62500 / nal_hrd=none / filler=0 / ip_ratio=1.40 / pb_ratio=1.30 / aq=3:0.80 / zones=129750,135373,q=28
Default : Да
Forced : Нет

Аудио #1
Идентификатор : 1
Формат : AC-3
Формат/Информация : Audio Coding 3
Расширение режима : CM (complete main)
Параметр Endianness формата : Big
Идентификатор кодека : A_AC3
Продолжительность : 1 ч. 34 м.
Вид битрейта : Постоянный
Битрейт : 384 Кбит/сек
Каналы : 6 каналов
Расположение каналов : Front: L C R, Side: L R, LFE
Частота : 48,0 КГц
Частота кадров : 31,250 кадров/сек (1536 spf)
Метод сжатия : С потерями
Размер потока : 258 Мбайт (12%)
Заголовок : DVO - ТО «Sky Voices»
Язык : Russian
Default : Да
Forced : Нет

Аудио #2
Идентификатор : 3
Формат : AC-3
Формат/Информация : Audio Coding 3
Расширение режима : CM (complete main)
Параметр Endianness формата : Big
Идентификатор кодека : A_AC3
Продолжительность : 1 ч. 34 м.
Вид битрейта : Постоянный
Битрейт : 384 Кбит/сек
Каналы : 6 каналов
Расположение каналов : Front: L C R, Side: L R, LFE
Частота : 48,0 КГц
Частота кадров : 31,250 кадров/сек (1536 spf)
Метод сжатия : С потерями
Размер потока : 258 Мбайт (12%)
Язык : English
Default : Нет
Forced : Нет

Текст #1
Идентификатор : 2
Формат : UTF-8
Идентификатор кодека : S_TEXT/UTF8
Идентификатор кодека/Информация : UTF-8 Plain Text
Продолжительность : 1 ч. 26 м.
Битрейт : 71 бит/сек
Count of elements : 810
Размер потока : 45,0 Кбайт (0%)
Заголовок : FOCS (Переводчики: Nichtingal, pyladean)
Язык : Russian
Default : Нет
Forced : Нет

Текст #2
Идентификатор : 4
Формат : UTF-8
Идентификатор кодека : S_TEXT/UTF8
Идентификатор кодека/Информация : UTF-8 Plain Text
Продолжительность : 1 ч. 26 м.
Битрейт : 41 бит/сек
Count of elements : 819
Размер потока : 26,2 Кбайт (0%)
Язык : English
Default : Нет
Forced : Нет

Меню
00:00:00.000 : en:Chapter 1
00:10:06.731 : en:Chapter 2
00:17:04.815 : en:Chapter 3
00:26:09.734 : en:Chapter 4
00:36:45.411 : en:Chapter 5
00:44:52.189 : en:Chapter 6
00:55:33.079 : en:Chapter 7
01:03:48.491 : en:Chapter 8
01:12:47.363 : en:Chapter 9
01:19:14.875 : en:Chapter 10
01:30:11.656 : en:Chapter 11



Скачать Ритуал.The.Ritual.(Дэвид.Брукнер).[2017.ужасы.WEB-DLRip-AVC].[DVO.(Sky.Voices)]+[Eng]+[Sub.Rus.Eng].torrent без регистрации
Золото ЗОЛОТАЯ РАЗДАЧА! СКАЧАННОЕ НЕ ЗАСЧИТЫВАЕТСЯ! Золото
Дата: Зарегистрирован   [ Тип: внешний ] Как тут cкачать?
MAGNET ссылка
MAGNET ссылка


Скачать .torrent

12 KB

Статус: проверено DHT
Скачан: торрент - 28 раз, раздача полностью - 17 раз
Размер: 2,18 GB
Оценка:  - (Голосов: 0)
Поблагодарили: 2
Поделиться ссылкой на эту раздачу с друзьями:
В контактеFacebookОдноклассникиTwitterLivejournalМой МирLiveinternet
 

 
Показать сообщения:    


Вы не можете начинать темы
Вы не можете отвечать на сообщения
Вы не можете редактировать свои сообщения
Вы не можете удалять свои сообщения
Вы не можете голосовать в опросах
Вы не можете прикреплять файлы к сообщениям
Вы можете скачивать файлы