Loading...
Error

Скачать Крепость Бадабер (01-04 из 04) (Кирилл Белевич) [2018, военный фильм, драма, WEB-DLRip-AVC] торрент без регистрации

Статистика раздачи
Размер:  4,66 GB   |    Скачан:  25 раз
Сидов:  1  [  0 KB/s  ]  
 
 
 
Автор Сообщение

МихаНЕзатор

[] 

Информация о фильме
Оригинальное название: Крепость Бадабер
Год выпуска: 2018
Жанр: драма, военный
Выпущено: Россия, Киностудия КИТ
Режиссер: Кирилл Белевич

В ролях: Сергей Марин, Светлана Иванова, Ирина Розанова, Сергей Колесников, Микаэл Джанибекян, Рамиль Сабитов, Василий Мищенко, Илья Маланин, Александр Фисенко, Станислав Курач, Марцин Стец, Данил Можаев, Александр Алёшкин, Константин Балакирев, Дмитрий Соколов, Артём Мельничук, Всеволод Шергин, Никита Кологривый

О фильме: Фильм о событиях, произошедших во время Афганской войны. В центре сюжета - восстание в лагере Бадабер. Весна 1985-ого. По заданию ГРУ разведчик Юрий Никитин проникает в пакистанскую крепость Бадабер. Никитин должен собрать доказательства существования здесь центра подготовки моджахедов под руководством ЦРУ. Выполнив опасное задание, Никитин видит на территории крепости группу русских военнопленных, среди которых узнает своего друга Михаила, сына своего командира генерала Колесова, несколько лет считавшегося пропавшим без вести. Никитин решает остаться и спасти обреченных на смерть ребят....

Релиз от:

Качество: WEB-DLRip (AVC)
Видео: MPEG-4 AVC, ~ 3000-3400 Кбит/с, 1024x576, 25 кадр/с
Аудио: AC3, 2 ch, 192 Кбит/с
Размер: 2.32 ГБ
Продолжительность: 2 x ~ 00:49:00
Язык: Русский

АНОНСЫ ПОПУЛЯРНЫХ РАЗДАЧ


Торрент обновлён, добавлена 4-я серия!

x264 [info]: frame I:616 Avg QP:15.26 size: 74259
x264 [info]: frame P:22669 Avg QP:18.49 size: 28197
x264 [info]: frame B:50811 Avg QP:20.28 size: 9007
x264 [info]: consecutive B-frames: 5.4% 10.3% 13.9% 52.2% 8.5% 7.2% 1.0% 0.9% 0.2% 0.1% 0.3%
x264 [info]: mb I I16..4: 6.1% 68.4% 25.5%
x264 [info]: mb P I16..4: 1.5% 24.1% 3.3% P16..4: 26.8% 28.8% 10.3% 2.0% 0.3% skip: 3.0%
x264 [info]: mb B I16..4: 0.5% 3.9% 0.4% B16..8: 27.7% 22.0% 4.6% direct: 8.2% skip:32.6% L0:36.0% L1:45.3% BI:18.7%
x264 [info]: 8x8 transform intra:81.7% inter:53.7%
x264 [info]: direct mvs spatial:99.3% temporal:0.7%
x264 [info]: coded y,uvDC,uvAC intra: 80.1% 79.2% 54.2% inter: 26.5% 24.3% 9.1%
x264 [info]: i16 v,h,dc,p: 18% 12% 6% 64%
x264 [info]: i8 v,h,dc,ddl,ddr,vr,hd,vl,hu: 16% 11% 12% 7% 9% 11% 10% 12% 13%
x264 [info]: i4 v,h,dc,ddl,ddr,vr,hd,vl,hu: 21% 11% 10% 6% 12% 13% 10% 9% 9%
x264 [info]: i8c dc,h,v,p: 37% 26% 21% 16%
x264 [info]: Weighted P-Frames: Y:5.8% UV:4.3%
x264 [info]: ref P L0: 59.4% 14.2% 14.6% 3.5% 2.6% 1.8% 1.6% 1.0% 1.0% 0.3% 0.0%
x264 [info]: ref B L0: 86.4% 8.1% 2.4% 1.2% 0.8% 0.6% 0.4% 0.2%
x264 [info]: ref B L1: 96.4% 3.6%
x264 [info]: kb/s:3084.18

x264 [info]: frame I:648 Avg QP:15.49 size: 74798
x264 [info]: frame P:22825 Avg QP:18.90 size: 29805
x264 [info]: frame B:47272 Avg QP:20.43 size: 10141
x264 [info]: consecutive B-frames: 7.6% 10.9% 13.3% 50.3% 8.3% 6.8% 1.1% 0.8% 0.2% 0.2% 0.4%
x264 [info]: mb I I16..4: 6.0% 68.3% 25.7%
x264 [info]: mb P I16..4: 1.5% 25.9% 3.7% P16..4: 25.6% 28.2% 10.2% 1.9% 0.2% skip: 2.7%
x264 [info]: mb B I16..4: 0.5% 4.5% 0.6% B16..8: 27.6% 22.7% 4.9% direct: 8.4% skip:30.7% L0:36.4% L1:45.2% BI:18.4%
x264 [info]: 8x8 transform intra:81.4% inter:54.2%
x264 [info]: direct mvs spatial:99.4% temporal:0.6%
x264 [info]: coded y,uvDC,uvAC intra: 81.8% 81.0% 55.5% inter: 28.2% 25.9% 10.0%
x264 [info]: i16 v,h,dc,p: 22% 12% 6% 60%
x264 [info]: i8 v,h,dc,ddl,ddr,vr,hd,vl,hu: 16% 11% 11% 7% 9% 11% 10% 12% 13%
x264 [info]: i4 v,h,dc,ddl,ddr,vr,hd,vl,hu: 20% 10% 9% 6% 12% 13% 10% 9% 9%
x264 [info]: i8c dc,h,v,p: 37% 24% 21% 17%
x264 [info]: Weighted P-Frames: Y:2.8% UV:1.2%
x264 [info]: ref P L0: 60.9% 14.8% 13.8% 3.2% 2.4% 1.6% 1.4% 0.8% 0.9% 0.2% 0.0%
x264 [info]: ref B L0: 86.5% 8.1% 2.4% 1.1% 0.7% 0.6% 0.4% 0.2%
x264 [info]: ref B L1: 96.5% 3.5%
x264 [info]: kb/s:3415.52

Общее
Уникальный идентификатор : 196817235041410701833612527703439217782 (0x94119EE32A7353DAAFDBEFA17D189476)
Полное имя : D:ЗагрузкиKrepost.Badaber.OlLanDGroupE01.Krepost.Badaber.2018.x264.WEB-DLRip.(AVC).OlLanDGroup.mkv
Формат : Matroska
Версия формата : Version 4 / Version 2
Размер файла : 1,13 Гбайт
Продолжительность : 49 м.
Общий поток : 3279 Кбит/сек
Название фильма : Крепость Бадабер.1-я серия.2018.Rip by: ollan
Дата кодирования : UTC 2018-02-14 08:22:17
Программа кодирования : mkvmerge v6.5.0 ('Isn't she lovely') built on Oct 20 2013 12:50:05
Библиотека кодирования : libebml v1.3.0 + libmatroska v1.4.1
Attachements : Cover - Krepost.Badaber.png

Видео
Идентификатор : 1
Формат : AVC
Формат/Информация : Advanced Video Codec
Профиль формата : High@L4.1
Параметр CABAC формата : Да
Параметр ReFrames формата : 9 кадров
Идентификатор кодека : V_MPEG4/ISO/AVC
Продолжительность : 49 м.
Битрейт : 3085 Кбит/сек
Ширина : 1024 пикселя
Высота : 576 пикселей
Соотношение сторон : 16:9
Режим частоты кадров : Постоянный
Частота кадров : 25,000 кадров/сек
Цветовое пространство : YUV
Субдискретизация насыщенности : 4:2:0
Битовая глубина : 8 бит
Тип развёртки : Прогрессивная
Бит/(Пиксели*Кадры) : 0.209
Размер потока : 1,04 Гбайт (92%)
Библиотека кодирования : x264 core 146 r2538 121396c
Настройки программы : cabac=1 / ref=9 / deblock=1:-2:-3 / analyse=0x3:0x133 / me=umh / subme=11 / psy=1 / psy_rd=0.95:0.07 / mixed_ref=1 / me_range=64 / chroma_me=1 / trellis=2 / 8x8dct=1 / cqm=0 / deadzone=21,11 / fast_pskip=0 / chroma_qp_offset=-3 / threads=12 / lookahead_threads=3 / sliced_threads=0 / nr=0 / decimate=0 / interlaced=0 / bluray_compat=0 / constrained_intra=0 / bframes=10 / b_pyramid=2 / b_adapt=2 / b_bias=0 / direct=3 / weightb=1 / open_gop=0 / weightp=2 / keyint=250 / keyint_min=25 / scenecut=40 / intra_refresh=0 / rc_lookahead=40 / rc=2pass / mbtree=0 / bitrate=3085 / ratetol=1.0 / qcomp=0.60 / qpmin=0 / qpmax=69 / qpstep=4 / cplxblur=20.0 / qblur=0.5 / vbv_maxrate=50000 / vbv_bufsize=62500 / nal_hrd=none / filler=0 / ip_ratio=1.40 / pb_ratio=1.30 / aq=1:1.00
Язык : Russian
Default : Да
Forced : Нет

Аудио
Идентификатор : 2
Формат : AC-3
Формат/Информация : Audio Coding 3
Расширение режима : CM (complete main)
Параметр Endianness формата : Big
Идентификатор кодека : A_AC3
Продолжительность : 49 м.
Вид битрейта : Постоянный
Битрейт : 192 Кбит/сек
Каналы : 2 канала
Расположение каналов : Front: L R
Частота : 48,0 КГц
Частота кадров : 31,250 кадров/сек (1536 spf)
Метод сжатия : С потерями
Размер потока : 67,8 Мбайт (6%)
Язык : Russian
Default : Да
Forced : Нет

Общее
Уникальный идентификатор : 231529742595737502152526062927758663382 (0xAE2F01A5464AF88885DD71DB3CAE9ED6)
Полное имя : D:ЗагрузкиKrepost.Badaber.OlLanDGroupE02.Krepost.Badaber.2018.x264.WEB-DLRip.(AVC).OlLanDGroup.mkv
Формат : Matroska
Версия формата : Version 4 / Version 2
Размер файла : 1,19 Гбайт
Продолжительность : 47 м.
Общий поток : 3610 Кбит/сек
Название фильма : Крепость Бадабер.2-я серия.2018.Rip by: ollan
Дата кодирования : UTC 2018-02-14 08:23:51
Программа кодирования : mkvmerge v6.5.0 ('Isn't she lovely') built on Oct 20 2013 12:50:05
Библиотека кодирования : libebml v1.3.0 + libmatroska v1.4.1
Attachements : Cover - Krepost.Badaber.png

Видео
Идентификатор : 1
Формат : AVC
Формат/Информация : Advanced Video Codec
Профиль формата : High@L4.1
Параметр CABAC формата : Да
Параметр ReFrames формата : 9 кадров
Идентификатор кодека : V_MPEG4/ISO/AVC
Продолжительность : 47 м.
Битрейт : 3416 Кбит/сек
Ширина : 1024 пикселя
Высота : 576 пикселей
Соотношение сторон : 16:9
Режим частоты кадров : Постоянный
Частота кадров : 25,000 кадров/сек
Цветовое пространство : YUV
Субдискретизация насыщенности : 4:2:0
Битовая глубина : 8 бит
Тип развёртки : Прогрессивная
Бит/(Пиксели*Кадры) : 0.232
Размер потока : 1,10 Гбайт (93%)
Библиотека кодирования : x264 core 146 r2538 121396c
Настройки программы : cabac=1 / ref=9 / deblock=1:-2:-3 / analyse=0x3:0x133 / me=umh / subme=11 / psy=1 / psy_rd=0.95:0.07 / mixed_ref=1 / me_range=64 / chroma_me=1 / trellis=2 / 8x8dct=1 / cqm=0 / deadzone=21,11 / fast_pskip=0 / chroma_qp_offset=-3 / threads=12 / lookahead_threads=3 / sliced_threads=0 / nr=0 / decimate=0 / interlaced=0 / bluray_compat=0 / constrained_intra=0 / bframes=10 / b_pyramid=2 / b_adapt=2 / b_bias=0 / direct=3 / weightb=1 / open_gop=0 / weightp=2 / keyint=250 / keyint_min=25 / scenecut=40 / intra_refresh=0 / rc_lookahead=40 / rc=2pass / mbtree=0 / bitrate=3416 / ratetol=1.0 / qcomp=0.60 / qpmin=0 / qpmax=69 / qpstep=4 / cplxblur=20.0 / qblur=0.5 / vbv_maxrate=50000 / vbv_bufsize=62500 / nal_hrd=none / filler=0 / ip_ratio=1.40 / pb_ratio=1.30 / aq=1:1.00
Язык : Russian
Default : Да
Forced : Нет

Аудио
Идентификатор : 2
Формат : AC-3
Формат/Информация : Audio Coding 3
Расширение режима : CM (complete main)
Параметр Endianness формата : Big
Идентификатор кодека : A_AC3
Продолжительность : 47 м.
Вид битрейта : Постоянный
Битрейт : 192 Кбит/сек
Каналы : 2 канала
Расположение каналов : Front: L R
Частота : 48,0 КГц
Частота кадров : 31,250 кадров/сек (1536 spf)
Метод сжатия : С потерями
Размер потока : 64,8 Мбайт (5%)
Язык : Russian
Default : Да
Forced : Нет



Скачать Крепость.Бадабер.(01-04.из.04).(Кирилл.Белевич).[2018.военный.фильм.драма.WEB-DLRip-AVC].torrent без регистрации
Золото ЗОЛОТАЯ РАЗДАЧА! СКАЧАННОЕ НЕ ЗАСЧИТЫВАЕТСЯ! Золото
Дата: Зарегистрирован   [ Тип: внутренний ] Как тут cкачать?
MAGNET ссылка
MAGNET ссылка


Скачать .torrent

13 KB

Статус: проверено DHT
Скачан: торрент - 25 раз, раздача полностью - 3 раз
Размер: 4,66 GB
Оценка:  - (Голосов: 0)
Поблагодарили: 1
Поделиться ссылкой на эту раздачу с друзьями:
В контактеFacebookОдноклассникиTwitterLivejournalМой МирLiveinternet
 

 
Показать сообщения:    


Вы не можете начинать темы
Вы не можете отвечать на сообщения
Вы не можете редактировать свои сообщения
Вы не можете удалять свои сообщения
Вы не можете голосовать в опросах
Вы не можете прикреплять файлы к сообщениям
Вы можете скачивать файлы