Loading...
Error

Скачать Балтийское небо (Владимир Вeнгеров) [1960, драма, военный, история, DVDRip-AVC] торрент без регистрации

Статистика раздачи
Размер:  2,18 GB   |    Скачан:  14 раз
Сидов:  1  [  0 KB/s  ]   Личеров:  1  [  0 KB/s  ]  
 
 
 
Автор Сообщение

Marsianka

[] 

Страна: СССР
Производство: Ленфильм

Жанр: драма, военный, история
Год выпуска: 1960
Продолжительность: 02:42:25 (01:24:15 + 01:18:10)

Перевод: Не требуется
Cубтитры: нет
Оригинальная аудиодорожка: русский

Режиссер: Владимир Вeнгеров

В ролях:
Пётр Глебов, Всеволод Платов, Михаил Ульянов, Ролан Быков, Михаил Козаков, Николай Ключнев, Эве Киви, Инна Кондратьева, Александр Виолинов, Людмила Гурченко, Виктор Перевалов, Фёдор Шмаков, Павел Усовниченко, Пантелеймон Крымов, Олег Борисов, Павел Луспекаев, Владислав Стржельчик...
Об актёрах подробней

Описание:
По одноимённому роману Николая Чуковского о героической битве за балтийское небо в дни Великой Отечественной войны.
Одну из лучших своих киноролей в фильме сыграл 33-летний Павел Луспекаев. Его лётчик Кузнецов, дебошир, исключённый за злоупотребление спиртным из военного училища, на фронте получает боевую закалку, исправляется и геройски погибает. Важным аспектом фильма является история любви юной ленинградки Сони и лётчика Татаренко. Дуэт двух молодых, но опытных мастеров экрана Людмилы Гурченко и Олега Борисова стал, по мнению критиков, эмоциональным украшением фильма, оптимистической и нежной ноткой, расцветившей фабулу киноэкранизации.


Источник: DVD5 R5
Качество видео: DVDRip-AVC
Формат видео: MKV

Видео: 688->726x546 (4:3), 25,000 кадров/сек, H264 ~ 1726 Кбит/сек, 0.184 bit/pixel
Аудио: 48 kHz, Dolby Digital AC3 2.0, 192 kbps

Раздача от:

Общее
Полное имя : Baltiyskoe.nebo.1960.DVDRip-AVC_[New-team]_by_AVP_StudioСерия 01.mkv
Формат : Matroska
Версия формата : Version 2
Размер файла : 1,13 Гбайт
Продолжительность : 1 ч. 24 м.
Общий поток : 1920 Кбит/сек
Дата кодирования : UTC 2018-02-19 12:02:43
Программа кодирования : mkvmerge v6.1.0 ('Old Devil') built on Mar 4 2013 09:10:42
Библиотека кодирования : libebml v1.3.0 + libmatroska v1.4.0

Видео
Идентификатор : 1
Формат : AVC
Формат/Информация : Advanced Video Codec
Профиль формата : High@L4.1
Настройки формата : CABAC / 10 Ref Frames
Параметр CABAC формата : Да
Параметр RefFrames формата : 10 кадров
Идентификатор кодека : V_MPEG4/ISO/AVC
Продолжительность : 1 ч. 24 м.
Битрейт : 1726 Кбит/сек
Ширина : 688 пикселей
Высота : 546 пикселей
Соотношение сторон : 4:3
Режим частоты кадров : Постоянный
Частота кадров : 25,000 кадров/сек
Цветовое пространство : YUV
Субдискретизация насыщенности : 4:2:0
Битовая глубина : 8 бит
Тип развёртки : Прогрессивная
Бит/(Пиксели*Кадры) : 0.184
Размер потока : 1018 Мбайт (88%)
Библиотека кодирования : x264 core 130 r2273 b3065e6
Настройки программы : cabac=1 / ref=10 / deblock=1:-2:-1 / analyse=0x3:0x113 / me=umh / subme=10 / psy=1 / psy_rd=1.00:0.00 / mixed_ref=1 / me_range=32 / chroma_me=1 / trellis=2 / 8x8dct=1 / cqm=0 / deadzone=21,11 / fast_pskip=1 / chroma_qp_offset=-2 / threads=6 / lookahead_threads=1 / sliced_threads=0 / nr=0 / decimate=0 / interlaced=0 / bluray_compat=0 / constrained_intra=0 / bframes=8 / b_pyramid=2 / b_adapt=2 / b_bias=0 / direct=3 / weightb=1 / open_gop=0 / weightp=2 / keyint=250 / keyint_min=25 / scenecut=40 / intra_refresh=0 / rc=2pass / mbtree=0 / bitrate=1726 / ratetol=1.0 / qcomp=0.60 / qpmin=0 / qpmax=69 / qpstep=4 / cplxblur=20.0 / qblur=0.5 / ip_ratio=1.40 / pb_ratio=1.30 / aq=1:1.00
Default : Да
Forced : Нет

Аудио
Идентификатор : 2
Формат : AC-3
Формат/Информация : Audio Coding 3
Идентификатор кодека : A_AC3
Продолжительность : 1 ч. 24 м.
Вид битрейта : Постоянный
Битрейт : 192 Кбит/сек
Каналы : 2 канала
Расположение каналов : Front: L R
Частота : 48,0 КГц
Частота кадров : 31,250 кадров/сек (1536 SPF)
Битовая глубина : 16 бит
Метод сжатия : С потерями
Размер потока : 116 Мбайт (10%)
Default : Да
Forced : Нет



Скачать Балтийское.небо.(Владимир.Вeнгеров).[1960.драма.военный.история.DVDRip-AVC].torrent без регистрации
Золото ЗОЛОТАЯ РАЗДАЧА! СКАЧАННОЕ НЕ ЗАСЧИТЫВАЕТСЯ! Золото
Дата: Зарегистрирован   [ Тип: внешний ] Как тут cкачать?
MAGNET ссылка
MAGNET ссылка


Скачать .torrent

12 KB

Статус: проверено DHT
Скачан: торрент - 14 раз, раздача полностью - 3 раз
Размер: 2,18 GB
Оценка:  - (Голосов: 0)
Поблагодарили: 0
Поделиться ссылкой на эту раздачу с друзьями:
В контактеFacebookОдноклассникиTwitterLivejournalМой МирLiveinternet
 

 
Показать сообщения:    


Вы не можете начинать темы
Вы не можете отвечать на сообщения
Вы не можете редактировать свои сообщения
Вы не можете удалять свои сообщения
Вы не можете голосовать в опросах
Вы не можете прикреплять файлы к сообщениям
Вы можете скачивать файлы