Loading...
Error

Скачать Под подозрением / Under Suspicion (Стивен Хопкинс) [2000, детектив, триллер, драма, криминал, WEBRip-AVC] [MVO (Неоклассика)]+[Sub Rus, Eng]x2 торрент без регистрации

Статистика раздачи
Размер:  1,72 GB   |    Скачан:  18 раз
Сидов:  1  [  0 KB/s  ]  
 
 
 
Автор Сообщение

Marsianka

[] 

Информация о фильме
Год выхода: 2000
Жанр: детектив, триллер, драма, криминал
Режиссер: Стивен Хопкинс
В ролях: Джин Хэкмен, Морган Фриман, Томас Джейн, Моника Беллуччи, Нидия Каро, Мигель Анхел, Суарес Пабло, Канкуэро Изабель, Альгазе Жаклин, Дюпрей Луис Кабальеро и др.

О фильме:
Столица Пуэрто-Рико искрится праздничными огнями, влиятельный адвокат Генри Хёрст спешит на благотворительный бал. Но сначала ему нужно ответить на вопросы инспектора полиции Виктора Бенезэ касательно трупа, найденного им в парке.
Стареющий миллионер еще не знает, что этот вечер станет самым трагичным в его жизни, ибо в ближайшие часы ему предстоит выдержать жестокую интеллектуальную дуэль с опытным детективом, который обвинит его в бесчеловечных убийствах и изнасилованиях девочек из трущоб.
Все факты свидетельствуют против адвоката, но что-то настораживает проницательного сыщика, и вскоре он понимает, что узнает истину, только если заглянет в самые мрачные уголки души блистательного Генри Хёрста…



Страна: Франция, США
Продолжительность: 01:51:09
Перевод: Профессиональный (многоголосый закадровый) Неоклассика

Файл
Качество: WEBRip-AVC
Формат: MKV
Видео: 1024x576 at 23.976 fps, High@L4.1, ~1725 kbps
Aудио: AC-3, 6 ch, 448 kbps
Субтитры: русские, английские
x264 info: frame I:1572 Avg QP:15.77 size: 67149
x264 info: frame P:33259 Avg QP:18.72 size: 19638
x264 info: frame B:125081 Avg QP:21.11 size: 5703
x264 info: consecutive B-frames: 1.8% 1.9% 5.6% 23.3% 15.7% 38.6% 7.1% 3.2% 2.4% 0.4%

General
Unique ID : 275055667184305752276402017006682491805 (0xCEEDCB699E6FBEBB59F450D32BC9CB9D)
Complete name : F:FILMSПод подозрением_2000_WEBRIP-AVC_[-=DoMiNo=-].mkv
Format : Matroska
Format version : Version 4 / Version 2
File size : 1.72 GiB
Duration : 1 h 51 min
Overall bit rate : 2 217 kb/s
Movie name : Под подозрением
Deion : Столица Пуэрто-Рико искрится праздничными огнями, влиятельный адвокат Генри Хёрст спешит на благотворительный бал. Но сначала ему нужно ответить на вопросы инспектора полиции Виктора Бенезэ касательно трупа, найденного им в парке. Стареющий миллионер еще не знает, что этот вечер станет самым трагичным в его жизни, ибо в ближайшие часы ему предстоит выдержать жестокую интеллектуальную дуэль с опытным детективом, который обвинит его в бесчеловечных убийствах и изнасилованиях девочек из трущоб. Все факты свидетельствуют против адвоката, но что-то настораживает проницательного сыщика, и вскоре он понимает, что узнает истину, только если заглянет в самые мрачные уголки души блистательного Генри Хёрста.
Writing application : XviD4PSP 7.0.443 DAILY
Writing library : Lavf57.71.100
ErrorDetectionType : Per level 1
Attachments : poster.jpg
ACTORS : Gene Hackman, Morgan Freeman, Thomas Jane, Monica Bellucci, Nydia Caro, Miguel Ángel Suárez, Pablo Cunqueiro, Isabel Algaze, Jacqueline Duprey, Luis Caballero, Patricia Beato, Sahyly Yamile, Héctor Travieso, Marisol Calero, Vanessa Shenk, Eliezer Ortiz, Ramon Saldaña
COMPOSER : Ángel "Cucco" Peña
COUNTRY : United States
DATE : 2000-09-24
DIRECTOR : Stephen Hopkins
ENCODING_INFO : MATROSKA,WEBM > MKV Пользовательский / H264 > X264 CRF 18.5 Пользовательский / AC3 > COPY Безопасное
GENRE : детектив, триллер
HD_VIDEO : 1
ITUNEXTC : mpaa|R|400|
Language : und
MEDIA_TYPE : 9
ORIGINAL_TITLE : Under Suspicion
PRODUCER : Ross Grayson Bell, Gene Hackman, Morgan Freeman, Maurice Leblond
PUBLISHER : Revelations Entertainment, TF1 International
RATING : 6.20
WRITER : Tom Provost, W. Peter Iliff, Claude Miller, Jean Herman, Michel Audiard

Video
ID : 1
Format : AVC
Format/Info : Advanced Video Codec
Format profile : High@L4.1
Format settings : CABAC / 10 Ref Frames
Format settings, CABAC : Yes
Format settings, ReFrames : 10 frames
Codec ID : V_MPEG4/ISO/AVC
Duration : 1 h 51 min
Bit rate : 1 725 kb/s
Width : 1 024 pixels
Height : 576 pixels
Display aspect ratio : 16:9
Frame rate mode : Constant
Frame rate : 23.976 (24000/1001) FPS
Color space : YUV
Chroma subsampling : 4:2:0
Bit depth : 8 bits
Scan type : Progressive
Bits/(Pixel*Frame) : 0.122
Stream size : 1.34 GiB (78%)
Title : RIP_BY_-=DoMiNo=-
Writing library : x264 core 155 r2901M 7d0ff22
Encoding settings : cabac=1 / ref=10 / deblock=1:-3:-3 / analyse=0x3:0x133 / me=umh / subme=10 / psy=1 / psy_rd=1.00:0.10 / mixed_ref=1 / me_range=32 / chroma_me=1 / trellis=2 / 8x8dct=1 / cqm=0 / deadzone=21,11 / fast_pskip=1 / chroma_qp_offset=-3 / threads=6 / lookahead_threads=1 / sliced_threads=0 / nr=0 / decimate=1 / interlaced=0 / bluray_compat=0 / constrained_intra=0 / bframes=9 / b_pyramid=2 / b_adapt=2 / b_bias=0 / direct=3 / weightb=1 / open_gop=0 / weightp=2 / keyint=240 / keyint_min=24 / scenecut=40 / intra_refresh=0 / rc_lookahead=60 / rc=crf / mbtree=1 / crf=18.5 / qcomp=0.60 / qpmin=0 / qpmax=69 / qpstep=4 / ip_ratio=1.40 / aq=1:1.00
Language : French
Default : Yes
Forced : No
Color range : Limited
Color primaries : BT.709
Transfer characteristics : BT.709
Matrix coefficients : BT.709

Audio
ID : 2
Format : AC-3
Format/Info : Audio Coding 3
Codec ID : A_AC3
Duration : 1 h 51 min
Bit rate mode : Constant
Bit rate : 448 kb/s
Channel(s) : 6 channels
Channel positions : Front: L C R, Side: L R, LFE
Sampling rate : 48.0 kHz
Frame rate : 31.250 FPS (1536 SPF)
Bit depth : 16 bits
Compression mode : Lossy
Stream size : 356 MiB (20%)
Title : MVO Неоклассика
Language : Russian
Service kind : Complete Main
Default : Yes
Forced : No

Text #1
ID : 3
Format : UTF-8
Codec ID : S_TEXT/UTF8
Codec ID/Info : UTF-8 Plain Text
Language : Russian
Default : Yes
Forced : No

Text #2
ID : 4
Format : UTF-8
Codec ID : S_TEXT/UTF8
Codec ID/Info : UTF-8 Plain Text
Language : English
Default : No
Forced : No



Скачать Под.подозрением.Under.Suspicion.(Стивен.Хопкинс).[2000.детектив.триллер.драма.криминал.WEBRip-AVC].[MVO.(Неоклассика)]+[Sub.Rus.Eng]x2.torrent без регистрации
Золото ЗОЛОТАЯ РАЗДАЧА! СКАЧАННОЕ НЕ ЗАСЧИТЫВАЕТСЯ! Золото
Дата: Зарегистрирован   [ Тип: внутренний ] Как тут cкачать?
MAGNET ссылка
MAGNET ссылка


Скачать .torrent

18 KB

Статус: проверено DHT
Скачан: торрент - 18 раз, раздача полностью - 4 раз
Размер: 1,72 GB
Оценка:  - (Голосов: 0)
Поблагодарили: 1
Поделиться ссылкой на эту раздачу с друзьями:
В контактеFacebookОдноклассникиTwitterLivejournalМой МирLiveinternet
 

 
Показать сообщения:    


Вы не можете начинать темы
Вы не можете отвечать на сообщения
Вы не можете редактировать свои сообщения
Вы не можете удалять свои сообщения
Вы не можете голосовать в опросах
Вы не можете прикреплять файлы к сообщениям
Вы можете скачивать файлы