Loading...
Error

Скачать Американский шпион (Леонид Попов) [1991, драма, VHSRip-AVC] торрент без регистрации

Статистика раздачи
Размер:  267 MB   |    Скачан:  18 раз
Сидов:  3  [  0 KB/s  ]  
 
 
 
Автор Сообщение

Marsianka

[] 

Информация о фильме
Название: Американский шпион
Год выхода: 1991
Жанр: драма
Режиссер: Леонид Попов
В ролях: Фёдор Сухов, Айрин Торнтон, Игорь Класс, Юрий Корченко, Виктор Махмутов, Алла Захарова, Сергей Макаров, Даниил Нетребин, Юрий Филатов

О фильме:
1945 год. Советский военный корабль находится с дружественной миссией в США. Молодой офицер Николай Коренев знакомится с американской девушкой Мэри. Между ними завязывается роман...



Доп. информация:
Сценарист: Андрей Гафуров
Оператор: Вадим Михайлов
Композитор: Валентин Золотарев
Производство: Центрнаучфильм, Инвест-I/XXI век



Благодарность: за редкий фильм NickK88442200 (AKA Antonello500) и Roilperry

Страна: СССР
Студия: Центрнаучфильм, Инвест-I/XXI век
Продолжительность: 01:24:56
Перевод: не требует

Файл
Кодек: AVC (H264)
Качество: VHSRip-AVC
Видео: MPEG4 Video (H264) 480x360 25fps 340kbps
Звук: AAC 44100Hz stereo 96kbps

General
Complete name : D:Новая земля 2Художественные фильмыАмериканский шпион (1991)Американский шпион (1991).mp4
Format : MPEG-4
Format profile : Base Media / Version 2
Codec ID : mp42 (isom/mp42)
File size : 267 MiB
Duration : 1 h 24 min
Overall bit rate mode : Variable
Overall bit rate : 439 kb/s
Encoded date : UTC 2017-05-23 17:23:36
Tagged date : UTC 2017-05-23 17:23:36
gsst : 0
gstd : 5095826

Video
ID : 1
Format : AVC
Format/Info : Advanced Video Codec
Format profile : Baseline@L2.1
Format settings, CABAC : No
Format settings, ReFrames : 1 frame
Format settings, GOP : M=1, N=60
Codec ID : avc1
Codec ID/Info : Advanced Video Coding
Duration : 1 h 24 min
Bit rate : 340 kb/s
Maximum bit rate : 1 659 kb/s
Width : 480 pixels
Height : 360 pixels
Display aspect ratio : 4:3
Frame rate mode : Constant
Frame rate : 25.000 FPS
Color space : YUV
Chroma subsampling : 4:2:0
Bit depth : 8 bits
Scan type : Progressive
Bits/(Pixel*Frame) : 0.079
Stream size : 207 MiB (78%)
Tagged date : UTC 2017-05-23 17:23:56

Audio
ID : 2
Format : AAC
Format/Info : Advanced Audio Codec
Format profile : LC
Codec ID : 40
Duration : 1 h 24 min
Bit rate mode : Variable
Bit rate : 96.0 kb/s
Maximum bit rate : 103 kb/s
Channel(s) : 2 channels
Channel positions : Front: L R
Sampling rate : 44.1 kHz
Frame rate : 43.066 FPS (1024 spf)
Compression mode : Lossy
Stream size : 58.3 MiB (22%)
Title : IsoMedia File Produced by Google, 5-11-2011
Encoded date : UTC 2017-05-23 17:23:47
Tagged date : UTC 2017-05-23 17:23:56
Семпл



Скачать Американский.шпион.(Леонид.Попов).[1991.драма.VHSRip-AVC].torrent без регистрации
Золото ЗОЛОТАЯ РАЗДАЧА! СКАЧАННОЕ НЕ ЗАСЧИТЫВАЕТСЯ! Золото
Дата: Зарегистрирован   [ Тип: внешний ] Как тут cкачать?
MAGNET ссылка
MAGNET ссылка


Скачать .torrent

13 KB

Статус: проверено DHT
Скачан: торрент - 18 раз, раздача полностью - 1 раз
Размер: 267 MB
Оценка:  - (Голосов: 0)
Поблагодарили: 0
Поделиться ссылкой на эту раздачу с друзьями:
В контактеFacebookОдноклассникиTwitterLivejournalМой МирLiveinternet
 

 
Показать сообщения:    


Вы не можете начинать темы
Вы не можете отвечать на сообщения
Вы не можете редактировать свои сообщения
Вы не можете удалять свои сообщения
Вы не можете голосовать в опросах
Вы не можете прикреплять файлы к сообщениям
Вы можете скачивать файлы