Loading...
Error

Скачать Сомбреро (Тамара Лисициан) [1959, детский, DVDRip] торрент без регистрации

Статистика раздачи
Размер:  1,09 GB   |    Скачан:  16 раз

Полного источника не было: 26 минут

 
 
 
Автор Сообщение

Marsianka

[] 

Страна: СССР
Производство: Киностудия им. Горького

Жанр: детский
Год выпуска: 1959
Продолжительность: 01:03:38

Перевод: Не требуется
Cубтитры: нет
Оригинальная аудиодорожка: русский

Режиссер: Тамара Лисициан

В ролях:
Анатолий Кулаков, Виктор Перевалов, Наталья Панина (II), Миша Тягунов, Витя Глазков, Василий Шишкин, Людмила Чернышёва, Вадим Грачёв, Сергей Корень, Сергей Филиппов...
Об актёрах подробней

Описание:
Группа ребят ставит спектакль по "Трем мушкетерам". Один из претендентов на главную роль "подкупает" режиссера, предлагая ему для постановки четыре настоящих рапиры. И тогда Толя Тычинкин, заведомо лучший Д'Артаньян, решает проучить обидчика... К нему приезжает родственник-дипломат из Мексики. Он привозит Шуре мексиканский костюм и настоящее сомбреро. Переодевшись, Шура представляется как родственник Тычинкина из Мексики по фамилии Цаплин. Долго Шура разыгрывал ребят. Наконец, они поняли, что "мексиканец" это и есть Шура Тычинкин, и что они поступили с ним нехорошо. В конце концов спектакль с участием Шуры состоялся...


Источник: DVD5 R5
Качество видео: DVDRip
Формат видео: AVI

Видео: 688x512 (4:3), 25 fps, XviD ~ 2260 kbps avg, 0.257 bit/pixel
Аудио: 48 kHz, Dolby Digital AC3 2.0, 192 kbps

Раздача от:

Общее
Полное имя : Sombrero.1959.DVDRip_[New-team]_by_AVP_Studio.avi
Формат : AVI
Формат/Информация : Audio Video Interleave
Размер файла : 1,09 Гбайт
Продолжительность : 1 ч. 3 м.
Общий поток : 2461 Кбит/сек
Программа кодирования : VirtualDubMod 1.5.10.3 | www.virtualdub-fr.org || (build 2550/release)
Библиотека кодирования : VirtualDubMod build 2550/release

Видео
Идентификатор : 0
Формат : MPEG-4 Visual
Профиль формата : Advanced Simple@L5
Настройки формата : BVOP1 / Custom Matrix
Параметр BVOP формата : 1
Параметр QPel формата : Нет
Параметр GMC формата : Без точки перехода
Параметр матрицы формата : Выборочная
Идентификатор кодека : XVID
Идентификатор кодека/Подсказка : XviD
Продолжительность : 1 ч. 3 м.
Битрейт : 2260 Кбит/сек
Ширина : 688 пикселей
Высота : 512 пикселей
Соотношение сторон : 4:3
Частота кадров : 25,000 кадров/сек
Цветовое пространство : YUV
Субдискретизация насыщенности : 4:2:0
Битовая глубина : 8 бит
Тип развёртки : Прогрессивная
Метод сжатия : С потерями
Бит/(Пиксели*Кадры) : 0.257
Размер потока : 1,00 Гбайт (92%)
Библиотека кодирования : XviD 73

Аудио
Идентификатор : 1
Формат : AC-3
Формат/Информация : Audio Coding 3
Идентификатор кодека : 2000
Продолжительность : 1 ч. 3 м.
Вид битрейта : Постоянный
Битрейт : 192 Кбит/сек
Каналы : 2 канала
Расположение каналов : Front: L R
Частота : 48,0 КГц
Частота кадров : 31,250 кадров/сек (1536 SPF)
Битовая глубина : 16 бит
Метод сжатия : С потерями
Размер потока : 87,4 Мбайт (8%)
Выравнивание : Разделение по промежуткам
Продолжительность промежутка : 40 мс. (1,00 видеокадр)
Время предзагрузки промежутка : 500 мс



Скачать Сомбреро.(Тамара.Лисициан).[1959.детский.DVDRip].torrent без регистрации
Золото ЗОЛОТАЯ РАЗДАЧА! СКАЧАННОЕ НЕ ЗАСЧИТЫВАЕТСЯ! Золото
Дата: Зарегистрирован   [ Тип: внутренний ] Как тут cкачать?
MAGNET ссылка
MAGNET ссылка


Скачать .torrent

12 KB

Статус: проверено DHT
Скачан: торрент - 16 раз, раздача полностью - 0 раз
Размер: 1,09 GB
Оценка:  - (Голосов: 0)
Поблагодарили: 0
Поделиться ссылкой на эту раздачу с друзьями:
В контактеFacebookОдноклассникиTwitterLivejournalМой МирLiveinternet
 

 
Показать сообщения:    


Вы не можете начинать темы
Вы не можете отвечать на сообщения
Вы не можете редактировать свои сообщения
Вы не можете удалять свои сообщения
Вы не можете голосовать в опросах
Вы не можете прикреплять файлы к сообщениям
Вы можете скачивать файлы