Loading...
Error

Скачать Nat Geo Wild: Тайна горилл / Mystery Gorilla (Джеймс Манфулл) [2009, документальный, HDTVRip] [720p] [VO]+[Eng] торрент без регистрации

Статистика раздачи
Размер:  1,52 GB   |    Скачан:  19 раз
Сидов:  1  [  0 KB/s  ]  
 
 
 
Автор Сообщение

Marsianka

[] 

Информация о фильме
Название: Тайна горилл
Оригинальное: Mystery Gorilla
Год выхода: 2009
Жанр: документальный
Режиссер: Джеймс Манфулл

О фильме:
В лесу Северного Конго обнаружено более ста тысяч горилл, которым в значительной степени удалось избежать контактов с человеком. То что поначалу было лишь легендой о лесе гигантов способных исчезать в тени стало открытием. От умения использовать инструменты до сложного социального поведения, эти гориллы ведут коллективную жизнь. Исследователь и приматолог, Мирейя Мэйор, отправится вглубь джунглей, что бы раскрыть секреты этих таинственных гигантов. Эта находка, даёт ещё одну возможность защитить этих редких высших приматов и самим увидеть беспримерное поведение.

Страна: США
Продолжительность: 00:46:57
Перевод: Профессиональный (одноголосый закадровый)

Файл
Кодек: MPEG-4 AVC
Качество: HDTVRip 720p
Видео: 1280x720, 4147 Кбит/с, 25 кадр/с
Аудио 1: Русский, AC-3, 2 канала, 192 Кбит/с
Аудио 2: Английский, AC-3, 2 канала, 192 Кбит/с
Общее
Уникальный идентификатор : 228956599511174215054150387743368519956 (0xAC3F6FE58C1F52EC809F59B8A385A114)
Полное имя : C:UsersDVideosMystery Gorilla (2009). 720p.mkv
Формат : Matroska
Версия формата : Version 2
Размер файла : 1,52 Гбайт
Продолжительность : 46 м. 57 с.
Общий поток : 4623 Кбит/сек
Дата кодирования : UTC 2012-03-21 08:24:09
Программа кодирования : mkvmerge v4.5.0 ('Speed of Light') сборка от Feb 1 2011 02:10:32
Библиотека кодирования : libebml v1.2.0 + libmatroska v1.1.0

Видео
Идентификатор : 1
Формат : AVC
Формат/Информация : Advanced Video Codec
Профиль формата : High@L4.1
Настройки формата : CABAC / 5 Ref Frames
Параметр CABAC формата : Да
Параметр RefFrames формата : 5 кадров
Идентификатор кодека : V_MPEG4/ISO/AVC
Продолжительность : 46 м. 57 с.
Битрейт : 4147 Кбит/сек
Ширина : 1280 пикселей
Высота : 720 пикселей
Соотношение сторон : 16:9
Режим частоты кадров : Постоянный
Частота кадров : 25,000 кадров/сек
Цветовое пространство : YUV
Субдискретизация насыщенности : 4:2:0
Битовая глубина : 8 бит
Тип развёртки : Прогрессивная
Бит/(Пиксели*Кадры) : 0.180
Размер потока : 1,36 Гбайт (90%)
Библиотека кодирования : x264 core 120 r2164 da19765
Настройки программы : cabac=1 / ref=5 / deblock=1:1:0 / analyse=0x3:0x113 / me=umh / subme=8 / psy=1 / psy_rd=1.00:0.00 / mixed_ref=1 / me_range=16 / chroma_me=1 / trellis=1 / 8x8dct=1 / cqm=0 / deadzone=21,11 / fast_pskip=1 / chroma_qp_offset=-4 / threads=12 / sliced_threads=0 / nr=0 / decimate=1 / interlaced=0 / bluray_compat=0 / constrained_intra=0 / bframes=3 / b_pyramid=2 / b_adapt=2 / b_bias=0 / direct=3 / weightb=1 / open_gop=0 / weightp=2 / keyint=250 / keyint_min=25 / scenecut=40 / intra_refresh=0 / rc_lookahead=50 / rc=crf / mbtree=1 / crf=21.0 / qcomp=0.60 / qpmin=0 / qpmax=69 / qpstep=4 / ip_ratio=1.40 / aq=1:1.00
Default : Да
Forced : Нет

Аудио #1
Идентификатор : 2
Формат : AC-3
Формат/Информация : Audio Coding 3
Идентификатор кодека : A_AC3
Продолжительность : 46 м. 57 с.
Вид битрейта : Постоянный
Битрейт : 192 Кбит/сек
Каналы : 2 канала
Расположение каналов : Front: L R
Частота : 48,0 КГц
Частота кадров : 31,250 кадров/сек (1536 SPF)
Битовая глубина : 16 бит
Метод сжатия : С потерями
Размер потока : 64,5 Мбайт (4%)
Заголовок : Petr Tobilevich
Язык : Russian
Default : Да
Forced : Нет

Аудио #2
Идентификатор : 3
Формат : AC-3
Формат/Информация : Audio Coding 3
Идентификатор кодека : A_AC3
Продолжительность : 46 м. 57 с.
Вид битрейта : Постоянный
Битрейт : 192 Кбит/сек
Каналы : 2 канала
Расположение каналов : Front: L R
Частота : 48,0 КГц
Частота кадров : 31,250 кадров/сек (1536 SPF)
Битовая глубина : 16 бит
Метод сжатия : С потерями
Задержка видео : 128 мс.
Размер потока : 64,5 Мбайт (4%)
Заголовок : Original
Язык : English
Default : Нет
Forced : Нет



Скачать Nat.Geo.Wild.Тайна.горилл.Mystery.Gorilla.(Джеймс.Манфулл).[2009.документальный.HDTVRip].[720p].[VO]+[Eng].torrent без регистрации
Золото ЗОЛОТАЯ РАЗДАЧА! СКАЧАННОЕ НЕ ЗАСЧИТЫВАЕТСЯ! Золото
Дата: Зарегистрирован   [ Тип: внутренний ] Как тут cкачать?
MAGNET ссылка
MAGNET ссылка


Скачать .torrent

16 KB

Статус: проверено DHT
Скачан: торрент - 19 раз, раздача полностью - 5 раз
Размер: 1,52 GB
Оценка:  - (Голосов: 0)
Поблагодарили: 1
Поделиться ссылкой на эту раздачу с друзьями:
В контактеFacebookОдноклассникиTwitterLivejournalМой МирLiveinternet
 

 
Показать сообщения:    


Вы не можете начинать темы
Вы не можете отвечать на сообщения
Вы не можете редактировать свои сообщения
Вы не можете удалять свои сообщения
Вы не можете голосовать в опросах
Вы не можете прикреплять файлы к сообщениям
Вы можете скачивать файлы