Loading...
Error

Скачать Discovery: Северная Америка / North America (Джеймс Мэнфулл, Сара Касс, Макс Саломон) [2013, документальный, путешествия, природа, флора, фауна, видовой, BDRemux] [1080i] [Dub] торрент без регистрации

Статистика раздачи
Размер:  32,42 GB   |    Скачан:  16 раз
Сидов:  1  [  0 KB/s  ]  
 
 
 
Автор Сообщение

Marsianka

[] 

Информация о фильме
Название: Северная Америка
Оригинальное: North America
Год выхода: 2013
Жанр: документальный, путешествия, природа, флора, фауна, видовой
Режиссер: Джеймс Мэнфулл, Сара Касс, Макс Саломон

О фильме:
Зрелищный взгляд на природу североамериканского континента глазами её обитателей. Вы подниметесь в воздух вместе с кондорами, оцените бескрайность прерий, наблюдая за койотами, совершите рекордно длинное путешествие вслед за китами — благодаря виртуозной работе операторов звери и птицы сами расскажут истории о том, как им живётся в окружении прекрасных, но порой суровых и опасных ландшафтов. Окиньте взглядом огромную территорию от Панамы до севера Канады.



Страна: США, Великобритания
Продолжительность: 6 х 00:43:45
Перевод: Дублированный

Файл
Кодек: MPEG2
Качество: BDRemux 1080i
Видео: 1920x1080, 20,0 Мбит/с, 25 кадр/с
Звук: AC-3, 2 канала, 192 Кбит/с
Общее
Уникальный идентификатор : 41675968442411757791207233232180776756 (0x1F5A7FE31026CEF94BA72A1665E68F34)
Полное имя : C:UsersDVideosСЕВЕРНАЯ АМЕРИКА1. РОЖДЁННЫЕ НЕПОКОРНЫМИ.mkv
Формат : Matroska
Версия формата : Version 4 / Version 2
Размер файла : 6,17 Гбайт
Продолжительность : 43 м. 45 с.
Режим общего битрейта : Постоянный
Общий поток : 20,2 Мбит/сек
Дата кодирования : UTC 2018-03-01 13:19:26
Программа кодирования : mkvmerge v21.0.0 ('Tardigrades Will Inherit The Earth') 64-bit
Библиотека кодирования : libebml v1.3.5 + libmatroska v1.4.8

Видео
Идентификатор : 1
Формат : MPEG Video
Версия формата : Version 2
Профиль формата : Main@High
Настройки формата : CustomMatrix / BVOP
Параметр BVOP формата : Да
Параметр матрицы формата : Выборочная
Параметр GOP формата : M=3, N=12
Структура изображения : Frame
Идентификатор кодека : V_MPEG2
Идентификатор кодека/Информация : MPEG 1 or 2 Video
Продолжительность : 43 м. 45 с.
Вид битрейта : Постоянный
Битрейт : 20,0 Мбит/сек
Ширина : 1920 пикселей
Высота : 1080 пикселей
Соотношение сторон : 16:9
Режим частоты кадров : Постоянный
Частота кадров : 25,000 кадров/сек
Цветовое пространство : YUV
Субдискретизация насыщенности : 4:2:0
Битовая глубина : 8 бит
Тип развёртки : Чересстрочная
Порядок развёртки : Верхнее поле первое
Метод сжатия : С потерями
Бит/(Пиксели*Кадры) : 0.386
Временной код первого кадра : 00:00:00:00
Оригинал временного кода : Group of pictures header
Размер потока : 6,11 Гбайт (99%)
Default : Да
Forced : Нет

Аудио
Идентификатор : 2
Формат : AC-3
Формат/Информация : Audio Coding 3
Идентификатор кодека : A_AC3
Продолжительность : 43 м. 45 с.
Вид битрейта : Постоянный
Битрейт : 192 Кбит/сек
Каналы : 2 канала
Расположение каналов : Front: L R
Частота : 48,0 КГц
Частота кадров : 31,250 кадров/сек (1536 SPF)
Битовая глубина : 16 бит
Метод сжатия : С потерями
Размер потока : 60,1 Мбайт (1%)
Язык : Russian
Default : Да
Forced : Нет
Эпизод 1: Рождённые непокорными
В первой серии мы перенесемся на Канадскую границу и сможем увидеть горных баранов, и нырнем в холодные воды с китами и их детьми, которые скрываются от хищников в Тихом океане.

Эпизод 2: Спрятаться негде
Безжалостное, непредсказуемое море травы. Поле битвы для хищников, ведущих охоту. Это владения дикой природы. Это территория Северной Америки, самое сердце континента.

Эпизод 3: Выживает сильнейший
От края до края Северной Америки, от глухих лесов до высочайших вершин - загадочный мир. В этом мире уроки жизни начинаются с самого рождения. От первых шагов и до поиска пары.

Эпизод 4: Дикий край
Побережье Северной Америки - дикий край и волшебный мир, где грация и красота природы порождает жизнь - непостижимую и опасную.

Эпизод 5: Изгнанники и скелеты
Пустыня - прожженная солнцем и застывшая во времени. Живущие здесь должны быть крайне изобретательны, чтобы выдержать жару и как-то выжить.

Эпизод 6: Тайны дикой природы
Северная Америка - континент крайностей. Огромные территории, неистовые ураганы и животные, сражающиеся за свою жизнь.



Скачать Discovery.Северная.Америка.North.America.(Джеймс.Мэнфулл.Сара.Касс.Макс.Саломон).[2013.документальный.путешествия.природа.флора.фауна.видовой.BDRemux].[1080i].[Dub].torrent без регистрации
Золото ЗОЛОТАЯ РАЗДАЧА! СКАЧАННОЕ НЕ ЗАСЧИТЫВАЕТСЯ! Золото
Дата: Зарегистрирован   [ Тип: внутренний ] Как тут cкачать?
MAGNET ссылка
MAGNET ссылка


Скачать .torrent

82 KB

Статус: проверено DHT
Скачан: торрент - 16 раз, раздача полностью - 0 раз
Размер: 32,42 GB
Оценка:  - (Голосов: 0)
Поблагодарили: 0
Поделиться ссылкой на эту раздачу с друзьями:
В контактеFacebookОдноклассникиTwitterLivejournalМой МирLiveinternet
 

 
Показать сообщения:    


Вы не можете начинать темы
Вы не можете отвечать на сообщения
Вы не можете редактировать свои сообщения
Вы не можете удалять свои сообщения
Вы не можете голосовать в опросах
Вы не можете прикреплять файлы к сообщениям
Вы можете скачивать файлы