Loading...
Error

Скачать Цель его жизни (Анатолий Рыбаков) [1957, драма, SATRip-AVC] [Оригинал Rus] торрент без регистрации

Статистика раздачи
Размер:  1,09 GB   |    Скачан:  13 раз
Сидов:  1  [  0 KB/s  ]  
 
 
 
Автор Сообщение

Marsianka

[] 

Страна: СССР
Производство: Мосфильм

Жанр: драма
Год выпуска: 1957
Продолжительность: 01:23:39

Перевод: Не требуется
Cубтитры: нет
Оригинальная аудиодорожка: русский

Режиссер: Анатолий Рыбаков

В ролях:
Всеволод Сафонов, Людмила Шагалова, Марк Бернес, Андрей Абрикосов, Владимир Емельянов, Софья Фадеева, Анатолий Чемодуров, Пётр Савин, Хорен Абрамян, Евгений Тетерин, Константин Светлов, Юрий Кротенко, Пров Садовский...
Об актёрах подробней

Описание:
Алексей Костров (Всеволод Сафонов), опытный военный летчик, Герой Советского Союза, мечтает испытывать новые реактивные машины. Однако его постоянные просьбы не приносят успеха. Кострову необходим опыт работы на дальних трассах. И он уезжает работать на один из степных аэродромов. В Москве Костров оставляет свою жену Нину (Людмила Шагалова), не зная, что она ждёт ребёнка. Однажды во время очередного полёта Костров самовольно изменяет маршрут самолёта, чтобы разыскать пропавшую геологическую партию. Лётчику удаётся спасти людей. Но начальник аэродрома, формалист Селиванов объявляет Кострову выговор. Внезапное известие о рождении у Нины мёртвого ребёнка приводит Алексея в Москву. Он снова отправляется на аэродром, где испытывают новые машины. Настойчивость Кострова подкупает опытного летчика-испытателя Ануфриева. С его помощью Костров вначале становится пилотом самолёта Як-12, перевозящего детали с заводов, а вскоре заменяет лётчика, погибшего во время испытательного полёта. Костров берётся за выполнение всё более сложных задач, помогая конструкторам совершенствовать реактивные самолёты. Нина встревожена за мужа, занимающегося трудной и опасной работой. Однажды самолёт Кострова отправляется в полёт без предварительной проверки. В этом виновен всё тот же Селиванов, перебравшийся в центральное управление. Он торопит лётчиков с окончанием испытаний, рассчитывая на большую премию. В воздухе самолёт загорается. Костров приказывает экипажу покинуть машину. С большим трудом Алексею удаётся сбить пламя и посадить самолёт.

Источник: DVB
Качество видео: SATRip-AVC
Формат видео: MKV

Видео: 688x572 (4:3), 25 fps, H264 ~ 1670 kbps avg, 0.170 bit/pixel
Аудио: 48 kHz, Dolby Digital AC3 2.0, 192 kbps

Раздача от:

Общее
Полное имя : Cel.ego.zhizni.1957.SATRip-AVC_[New-team]_by_AVP_Studio.mkv
Формат : Matroska
Версия формата : Version 2
Размер файла : 1,09 Гбайт
Продолжительность : 1 ч. 23 м.
Общий поток : 1864 Кбит/сек
Дата кодирования : UTC 2017-03-07 18:44:38
Программа кодирования : mkvmerge v6.1.0 ('Old Devil') built on Mar 4 2013 09:10:42
Библиотека кодирования : libebml v1.3.0 + libmatroska v1.4.0

Видео
Идентификатор : 1
Формат : AVC
Формат/Информация : Advanced Video Codec
Профиль формата : High@L4.1
Параметр CABAC формата : Да
Параметр ReFrames формата : 10 кадров
Идентификатор кодека : V_MPEG4/ISO/AVC
Продолжительность : 1 ч. 23 м.
Битрейт : 1670 Кбит/сек
Ширина : 688 пикселей
Высота : 572 пикселя
Соотношение сторон : 4:3
Режим частоты кадров : Постоянный
Частота кадров : 25,000 кадров/сек
Цветовое пространство : YUV
Субдискретизация насыщенности : 4:2:0
Битовая глубина : 8 бит
Тип развёртки : Прогрессивная
Бит/(Пиксели*Кадры) : 0.170
Размер потока : 978 Мбайт (88%)
Библиотека кодирования : x264 core 148 r2597 e86f3a1
Настройки программы : cabac=1 / ref=10 / deblock=1:-2:-1 / analyse=0x3:0x113 / me=umh / subme=10 / psy=1 / psy_rd=1.00:0.00 / mixed_ref=1 / me_range=32 / chroma_me=1 / trellis=2 / 8x8dct=1 / cqm=0 / deadzone=21,11 / fast_pskip=1 / chroma_qp_offset=-2 / threads=6 / lookahead_threads=1 / sliced_threads=0 / nr=0 / decimate=0 / interlaced=0 / bluray_compat=0 / constrained_intra=0 / bframes=8 / b_pyramid=2 / b_adapt=2 / b_bias=0 / direct=3 / weightb=1 / open_gop=0 / weightp=2 / keyint=250 / keyint_min=25 / scenecut=40 / intra_refresh=0 / rc=2pass / mbtree=0 / bitrate=1670 / ratetol=1.0 / qcomp=0.60 / qpmin=0 / qpmax=69 / qpstep=4 / cplxblur=20.0 / qblur=0.5 / ip_ratio=1.40 / pb_ratio=1.30 / aq=1:1.00
Default : Да
Forced : Нет

Аудио
Идентификатор : 2
Формат : AC-3
Формат/Информация : Audio Coding 3
Расширение режима : CM (complete main)
Параметр Endianness формата : Big
Идентификатор кодека : A_AC3
Продолжительность : 1 ч. 23 м.
Вид битрейта : Постоянный
Битрейт : 192 Кбит/сек
Каналы : 2 канала
Расположение каналов : Front: L R
Частота : 48,0 КГц
Частота кадров : 31,250 кадров/сек (1536 spf)
Битовая глубина : 16 бит
Метод сжатия : С потерями
Размер потока : 115 Мбайт (10%)
Default : Да
Forced : Нет



Скачать Цель.его.жизни.(Анатолий.Рыбаков).[1957.драма.SATRip-AVC].[Оригинал.Rus].torrent без регистрации
Золото ЗОЛОТАЯ РАЗДАЧА! СКАЧАННОЕ НЕ ЗАСЧИТЫВАЕТСЯ! Золото
Дата: Зарегистрирован   [ Тип: внутренний ] Как тут cкачать?
MAGNET ссылка
MAGNET ссылка


Скачать .torrent

12 KB

Статус: проверено DHT
Скачан: торрент - 13 раз, раздача полностью - 0 раз
Размер: 1,09 GB
Оценка:  - (Голосов: 0)
Поблагодарили: 0
Поделиться ссылкой на эту раздачу с друзьями:
В контактеFacebookОдноклассникиTwitterLivejournalМой МирLiveinternet
 

 
Показать сообщения:    


Вы не можете начинать темы
Вы не можете отвечать на сообщения
Вы не можете редактировать свои сообщения
Вы не можете удалять свои сообщения
Вы не можете голосовать в опросах
Вы не можете прикреплять файлы к сообщениям
Вы можете скачивать файлы