Loading...
Error

Скачать Миля лунного света / Moonlight Mile (Брэд Силберлинг) [2002, мелодрама, драма, WEB-DLRip] [MVO («Парадиз»)] торрент без регистрации

Статистика раздачи
Размер:  697 MB   |    Скачан:  9 раз
Сидов:  1  [  0 KB/s  ]  
 
 
 
Автор Сообщение

Marsianka

[] 

Информация о фильме
Название: Миля лунного света
Оригинальное название: Moonlight Mile
Год выхода: 2002
Жанр: мелодрама, драма
Режиссер: Брэд Силберлинг
В ролях: Дастин Хоффман, Сьюзен Сарандон, Джейк Джилленхол, Алексия Ландо, Эллен Помпео, Ричард Мессинг, Лев Фридман, Боб Кленденин, Джим Файф, Мэри Эллен Трейнор

О фильме: Американская провинция, 70-е годы. У главного героя - Джо - в результате несчастного случая трагически погибает невеста Диана. Он остается с несостоявшимися тестем и тёщей - Беном и Джо-Джо, к которым искренне привязался. Джо живёт в их доме, спит в комнате Дианы на её кровати, среди детских игрушек и фотографий девушки.И так, день за днём, Джо принимает соболезнования, ходит на почту забирать свадебные приглашения, к адвокату и даже соглашается стать партнёром Бена по бизнесу. Бен и Джо-Джо не в состоянии отпустить от себя молодого человека, он стал для них если не заменой Дианы, то единственной нитью, связывающей их с покойной дочерью. А у Джо не хватает духу признаться убитым горем родителям, что он не любил Диану. Положение осложняется тем, что Джо неожиданно встречает свою настоящую любовь…



Страна: США
Студия: Touchstone Pictures, Reveal Entertainment, Gran Via, Hyde Park Entertainment, Punch Productions Inc.
Продолжительность: 01:56:53
Перевод: Профессиональный (многоголосый, закадровый) («Парадиз»)
Субтитры: Нет

Файл
Кодек: XviD
Качество: WEB-DLRip
Видео: 688x288 (2.39:1), 23.976 fps, XviD build 73 ~703 kbps avg, 0.15 bit/pixel
Звук: 48 kHz, MPEG Layer 3, 2 ch, ~128.00 kbps avg
General
Complete name : Moonlight.Mile.2002.WEB-DLRip.ot.Portablius.avi
Format : AVI
Format/Info : Audio Video Interleave
File size : 697 MiB
Duration : 1 h 55 min
Overall bit rate : 841 kb/s
Writing application : VirtualDubMod 1.5.10.3 | www.virtualdub-fr.org || (build 2550/release)
Writing library : VirtualDub build 35491/release

Video
ID : 0
Format : MPEG-4 Visual
Format profile : Advanced Simple@L5
Format settings, BVOP : 1
Format settings, QPel : No
Format settings, GMC : No warppoints
Format settings, Matrix : Custom
Codec ID : XVID
Codec ID/Hint : XviD
Duration : 1 h 55 min
Bit rate : 703 kb/s
Width : 688 pixels
Height : 288 pixels
Display aspect ratio : 2.40:1
Frame rate : 23.976 (24000/1001) FPS
Original frame rate : 23.976 (23976/1000) FPS
Color space : YUV
Chroma subsampling : 4:2:0
Bit depth : 8 bits
Scan type : Progressive
Compression mode : Lossy
Bits/(Pixel*Frame) : 0.148
Stream size : 583 MiB (84%)
Writing library : XviD 73

Audio
ID : 1
Format : MPEG Audio
Format version : Version 1
Format profile : Layer 3
Codec ID : 55
Codec ID/Hint : MP3
Duration : 1 h 55 min
Bit rate mode : Constant
Bit rate : 128 kb/s
Channel(s) : 2 channels
Sampling rate : 48.0 kHz
Compression mode : Lossy
Stream size : 106 MiB (15%)
Alignment : Aligned on interleaves
Interleave, duration : 42 ms (1.00 video frame)
Interleave, preload duratio : 504 ms
Writing library : LAME3.99r
Encoding settings : -m s -V 4 -q 2 -lowpass 17 -b 128



Скачать Миля.лунного.света.Moonlight.Mile.(Брэд.Силберлинг).[2002.мелодрама.драма.WEB-DLRip].[MVO.(«Парадиз»)].torrent без регистрации
Золото ЗОЛОТАЯ РАЗДАЧА! СКАЧАННОЕ НЕ ЗАСЧИТЫВАЕТСЯ! Золото
Дата: Зарегистрирован   [ Тип: внутренний ] Как тут cкачать?
MAGNET ссылка
MAGNET ссылка


Скачать .torrent

15 KB

Статус: проверено DHT
Скачан: торрент - 9 раз, раздача полностью - 0 раз
Размер: 697 MB
Оценка:  - (Голосов: 0)
Поблагодарили: 0
Поделиться ссылкой на эту раздачу с друзьями:
В контактеFacebookОдноклассникиTwitterLivejournalМой МирLiveinternet
 

 
Показать сообщения:    


Вы не можете начинать темы
Вы не можете отвечать на сообщения
Вы не можете редактировать свои сообщения
Вы не можете удалять свои сообщения
Вы не можете голосовать в опросах
Вы не можете прикреплять файлы к сообщениям
Вы можете скачивать файлы