Loading...
Error

Скачать «Авария» – дочь мента (Михаил Туманишвили) [1989, драма, DVDRip-AVC] [Оригинал Rus] торрент без регистрации

Статистика раздачи
Размер:  747 MB   |    Скачан:  17 раз

Полного источника не было: 26 минут

 
 
 
Автор Сообщение

Marsianka

[] 

Информация о фильме
Название: «Авария» – дочь мента
Год выхода: 1989
Жанр: драма
Режиссер: Михаил Туманишвили
В ролях: Оксана Арбузова, Владимир Ильин, Анастасия Вознесенская, Николай Пастухов, Борис Романов, Олег Царёв, Игорь Нефёдов, Сергей Воробьев, Юрий Шумило, Любовь Соколова, Александр Потапов, Алиса Признякова, Ирина Афонина, Владимир Басов младший, Николай Бармин, Валентина Березуцкая, Игорь Букатко, Вера Бурлакова, Мария Виноградова, Федор Гаврилов, Ян Пузыревский, Олег Савосин, Борис Юрченко...

О фильме :
Конфликт поколений времен перестройки. Герои фильма - отец-милиционер и его юная дочь - "металлистка". После очередного скандала Валерия уходит из дома. Пытаясь ее разыскать, отец окунается в среду, где проходит жизнь дочери: встречается с хиппи, сутенерами, металлистами, токсикоманами... Когда он узнает, что с дочерью случилось несчастье, то сам нарушает закон. Выследив парней, надругавшихся над Валерией, он угоняет машину и на большой скорости таранит автомобиль насильников.



Страна: СССР
Студия: Слово
Продолжительность: 01:33:18
Язык: Русский

Файл
Формат: MKV
Качество: DVDRip-AVC
Видео: MPEG-4 AVC, 720x508, ~ 1041 Кбит/с
Аудио: AAC-HE, 2 ch, ~ 76 Кбит/с
Общее
Уникальный идентификатор : 74469521986799974212450187097361469722 (0x38064EE86A045D7CAF3950509741D11A)
Полное имя : D:MOVIESAvarija - doch_menta.1989.ExKinoRay.mkv
Формат : Matroska
Версия формата : Version 2
Размер файла : 747 Мбайт
Продолжительность : 1 ч. 33 м.
Общий поток : 1119 Кбит/сек
Дата кодирования : UTC 2018-03-08 13:48:15
Программа кодирования : mkvmerge v21.0.0 ('Tardigrades Will Inherit The Earth') 64-bit
Библиотека кодирования : libebml v1.3.5 + libmatroska v1.4.8

Видео
Идентификатор : 1
Формат : AVC
Формат/Информация : Advanced Video Codec
Профиль формата : High@L4.1
Параметр CABAC формата : Да
Параметр RefFrames формата : 10 кадров
Идентификатор кодека : V_MPEG4/ISO/AVC
Продолжительность : 1 ч. 33 м.
Битрейт : 1041 Кбит/сек
Ширина : 720 пикселей
Высота : 508 пикселей
Соотношение сторон : 1,417
Режим частоты кадров : Постоянный
Частота кадров : 25,000 кадров/сек
Цветовое пространство : YUV
Субдискретизация насыщенности : 4:2:0
Битовая глубина : 8 бит
Тип развёртки : Прогрессивная
Бит/(Пиксели*Кадры) : 0.114
Размер потока : 695 Мбайт (93%)
Библиотека кодирования : x264 core 155 r2901 7d0ff22
Настройки программы : cabac=1 / ref=10 / deblock=1:-3:-3 / analyse=0x3:0x133 / me=umh / subme=11 / psy=1 / psy_rd=1.00:0.10 / mixed_ref=1 / me_range=32 / chroma_me=1 / trellis=2 / 8x8dct=1 / cqm=0 / deadzone=21,11 / fast_pskip=0 / chroma_qp_offset=-3 / threads=6 / lookahead_threads=1 / sliced_threads=0 / nr=0 / decimate=0 / interlaced=0 / bluray_compat=0 / constrained_intra=0 / bframes=10 / b_pyramid=2 / b_adapt=2 / b_bias=0 / direct=3 / weightb=1 / open_gop=0 / weightp=2 / keyint=250 / keyint_min=24 / scenecut=40 / intra_refresh=0 / rc_lookahead=40 / rc=2pass / mbtree=1 / bitrate=1041 / ratetol=1.0 / qcomp=0.60 / qpmin=0 / qpmax=69 / qpstep=4 / cplxblur=20.0 / qblur=0.5 / vbv_maxrate=50000 / vbv_bufsize=62500 / nal_hrd=none / filler=0 / ip_ratio=1.40 / aq=3:1.00
Default : Да
Forced : Нет

Аудио
Идентификатор : 2
Формат : AAC
Формат/Информация : Advanced Audio Codec
Профиль формата : HE-AAC / LC
Идентификатор кодека : A_AAC
Продолжительность : 1 ч. 33 м.
Битрейт : 76,0 Кбит/сек
Каналы : 2 канала
Расположение каналов : Front: L R
Частота : 48,0 КГц / 24,0 КГц
Частота кадров : 23,438 кадра/сек (1024 SPF)
Метод сжатия : С потерями
Задержка видео : 31 мс.
Размер потока : 50,7 Мбайт (7%)
Default : Да
Forced : Нет
Релиз от:



Скачать «Авария».–.дочь.мента.(Михаил.Туманишвили).[1989.драма.DVDRip-AVC].[Оригинал.Rus].torrent без регистрации
Золото ЗОЛОТАЯ РАЗДАЧА! СКАЧАННОЕ НЕ ЗАСЧИТЫВАЕТСЯ! Золото
Дата: Зарегистрирован   [ Тип: внутренний ] Как тут cкачать?
MAGNET ссылка
MAGNET ссылка


Скачать .torrent

16 KB

Статус: проверено DHT
Скачан: торрент - 17 раз, раздача полностью - 3 раз
Размер: 747 MB
Оценка:  - (Голосов: 0)
Поблагодарили: 0
Поделиться ссылкой на эту раздачу с друзьями:
В контактеFacebookОдноклассникиTwitterLivejournalМой МирLiveinternet
 

 
Показать сообщения:    


Вы не можете начинать темы
Вы не можете отвечать на сообщения
Вы не можете редактировать свои сообщения
Вы не можете удалять свои сообщения
Вы не можете голосовать в опросах
Вы не можете прикреплять файлы к сообщениям
Вы можете скачивать файлы