Loading...
Error

Скачать Сквозь строй / The Gauntlet (Клинт Иствуд) [1977, боевик, триллер, драма, криминал, BDRemux] [1080p] [MVO]+[AVO (Сергей Визгунов)]+[Eng]x2+[Sub Eng] торрент без регистрации

Статистика раздачи
Размер:  19,9 GB   |    Скачан:  10 раз
Сидов:  1  [  0 KB/s  ]  
 
 
 
Автор Сообщение

Marsianka

[] 

Информация о фильме
Название: Сквозь строй
Оригинальное название: The Gauntlet
Год выхода: 1977
Жанр: боевик, триллер, драма, криминал
Режиссер: Клинт Иствуд
В ролях: Клинт Иствуд, Сондра Лок, Пэт Хингл, Уильям Принц, Билл МакКинни, Майкл Кавана, Кэрол Кук, Мара Кордей, Даг МакГрат, Джеф Моррис, Саманта Доан, Рой Дженсон, Дэн Вадис, Карвер Барнс, Роберт Баррет, Тедди Беар, Милдред Брайон, Рон Чэпман, Джеймс В. Гэвин, Томас Х. Фридкин, Дарвин Ламб, Роджер Лоу, Фритц Мэйнс, Аль Сильвани

О фильме:
Мечты детектива Бена Шокли о настоящем, «большом» деле утонули в болоте одиноких лет и омуте «Джека Дэниэлса». Новое задание полицейского — привезти из Лас-Вегаса «обычного свидетеля по обычному делу» — тоже, на первый взгляд, сильно отличается от прекрасного подвига. Но тут наш герой очень ошибался…



Страна: США
Студия: Malpaso Productions, Warner Bros. Pictures Co.
Продолжительность: 01:49:11
Перевод: Профессиональный многоголосый, Авторский

Файл
Кодек: WVC1
Качество: BDRemux 1080p
Видео: VC-1, 21.9 Mбит/с, 1920x1080, 23,976 кадр/с

1. Русский (AC3, 2 ch, 192 Кбит/с) / Профессиональный многоголосый
2. Русский (DTS-HD MA, 6 ch, 1815 Кбит/с) / Авторский (Сергей Визгунов)
3.Английский (TrueHD, 6 ch, 1483 Кбит/с)
4.Английский (AC3, 6 ch, 640 Кбит/с)
Субтитры: Английские (SDH)
Семпл

Unique ID : 107161902486269902995716130377667013687 (0x509EA1B6688C8EC6FF4565E4E4216C37)
Complete name : D:uTorrentSkvoz.stroy.1977.BDRemux.1080p.MediaClub.mkv
Format : Matroska
Format version : Version 4 / Version 2
File size : 19.9 GiB
Duration : 1 h 49 min
Overall bit rate mode : Variable
Overall bit rate : 26.1 Mb/s
Encoded date : UTC 2018-03-05 12:12:15
Writing application : mkvmerge v19.0.0 ('Brave Captain') 64-bit
Writing library : libebml v1.3.5 + libmatroska v1.4.8
Cover : Yes
Attachments : cover.jpg

Video
ID : 1
Format : VC-1
Format profile : Advanced@L3
Codec ID : V_MS/VFW/FOURCC / WVC1
Codec ID/Hint : Microsoft
Duration : 1 h 49 min
Bit rate : 21.9 Mb/s
Width : 1 920 pixels
Height : 1 080 pixels
Display aspect ratio : 16:9
Frame rate mode : Constant
Frame rate : 23.976 (24000/1001) FPS
Color space : YUV
Chroma subsampling : 4:2:0
Bit depth : 8 bits
Scan type : Progressive
Compression mode : Lossy
Bits/(Pixel*Frame) : 0.440
Stream size : 16.7 GiB (84%)
Title : BDRemux by Silverok
Default : Yes
Forced : No

Audio #1
ID : 2
Format : AC-3
Format/Info : Audio Coding 3
Codec ID : A_AC3
Duration : 1 h 49 min
Bit rate mode : Constant
Bit rate : 192 kb/s
Channel(s) : 2 channels
Channel positions : Front: L R
Sampling rate : 48.0 kHz
Frame rate : 31.250 FPS (1536 SPF)
Bit depth : 16 bits
Compression mode : Lossy
Stream size : 150 MiB (1%)
Title : Профессиональный многоголосый
Language : Russian
Service kind : Complete Main
Default : Yes
Forced : No

Audio #2
ID : 3
Format : DTS
Format/Info : Digital Theater Systems
Format profile : MA / Core
Codec ID : A_DTS
Duration : 1 h 49 min
Bit rate mode : Variable / Constant
Bit rate : 1 815 kb/s / 768 kb/s
Channel(s) : 6 channels
Channel positions : Front: L C R, Side: L R, LFE
Sampling rate : 48.0 kHz
Frame rate : 93.750 FPS (512 SPF)
Bit depth : 16 bits
Compression mode : Lossless / Lossy
Stream size : 1.38 GiB (7%)
Title : Авторский (Сергей Визгунов)
Language : Russian
Default : No
Forced : No

Audio #3
ID : 4
Format : TrueHD
Codec ID : A_TRUEHD
Duration : 1 h 49 min
Bit rate mode : Variable
Bit rate : 1 483 kb/s
Maximum bit rate : 2 871 kb/s
Channel(s) : 6 channels
Channel positions : Front: L C R, Side: L R, LFE
Sampling rate : 48.0 kHz
Frame rate : 1 200.000 FPS (40 SPF)
Compression mode : Lossless
Stream size : 1.13 GiB (6%)
Language : English
Default : No
Forced : No

Audio #4
ID : 5
Format : AC-3
Format/Info : Audio Coding 3
Codec ID : A_AC3
Duration : 1 h 49 min
Bit rate mode : Constant
Bit rate : 640 kb/s
Channel(s) : 6 channels
Channel positions : Front: L C R, Side: L R, LFE
Sampling rate : 48.0 kHz
Frame rate : 31.250 FPS (1536 SPF)
Bit depth : 16 bits
Compression mode : Lossy
Stream size : 500 MiB (2%)
Language : English
Service kind : Complete Main
Default : No
Forced : No

Text
ID : 6
Format : UTF-8
Codec ID : S_TEXT/UTF8
Codec ID/Info : UTF-8 Plain Text
Duration : 1 h 45 min
Bit rate : 53 b/s
Count of elements : 1268
Stream size : 41.5 KiB (0%)
Title : SDH
Language : English
Default : Yes
Forced : No

Menu
00:00:00.000 : en:A.M. Phoenix
00:03:16.738 : en:Nothing Witness
00:06:04.280 : en:Had Our Times
00:07:49.177 : en:Is He or Isn't He?
00:09:59.015 : en:The Vegas Odds
00:14:45.634 : en:A Stretcher Case
00:18:27.189 : en:Moving Targets
00:21:16.858 : en:Nothing Left
00:30:26.866 : en:No Chance in Hell
00:34:17.597 : en:Call For an Escort
00:36:52.752 : en:What it's Like
00:41:25.399 : en:Choosing Sides
00:45:26.724 : en:"How Y'all Doin?"
00:47:56.873 : en:Don't Wait it Done
00:51:57.364 : en:Face of Stone
00:56:24.506 : en:The Bikers
01:01:11.042 : en:Menace Overhead
01:04:52.889 : en:Wired to Destruct
01:08:28.270 : en:Train From Hell
01:11:14.812 : en:Striking Back
01:13:45.462 : en:Tell Him I'm Comin'
01:17:30.020 : en:A Dislike of Cops
01:20:33.537 : en:Gonna Be a Winner
01:23:27.252 : en:End of the Line
01:24:38.073 : en:Stopped...Hard!
01:27:19.067 : en:The Plan: Gauntlet
01:29:39.248 : en:Army on Streets
01:31:12.175 : en:On Faith
01:33:30.313 : en:Paid to School
01:34:46.722 : en:A Pal's Dead End
01:39:24.208 : en:Into the Gauntlet
01:43:55.479 : en:City Hall
01:45:49.801 : en:Orders Executed
01:47:17.597 : en:End Credits
Релиз от: | Silverok



Скачать Сквозь.строй.The.Gauntlet.(Клинт.Иствуд).[1977.боевик.триллер.драма.криминал.BDRemux].[1080p].[MVO]+[AVO.(Сергей.Визгунов)]+[Eng]x2+[Sub.Eng].torrent без регистрации
Золото ЗОЛОТАЯ РАЗДАЧА! СКАЧАННОЕ НЕ ЗАСЧИТЫВАЕТСЯ! Золото
Дата: Зарегистрирован   [ Тип: внутренний ] Как тут cкачать?
MAGNET ссылка
MAGNET ссылка


Скачать .torrent

51 KB

Статус: проверено DHT
Скачан: торрент - 10 раз, раздача полностью - 2 раз
Размер: 19,9 GB
Оценка:  - (Голосов: 0)
Поблагодарили: 0
Поделиться ссылкой на эту раздачу с друзьями:
В контактеFacebookОдноклассникиTwitterLivejournalМой МирLiveinternet
 

 
Показать сообщения:    


Вы не можете начинать темы
Вы не можете отвечать на сообщения
Вы не можете редактировать свои сообщения
Вы не можете удалять свои сообщения
Вы не можете голосовать в опросах
Вы не можете прикреплять файлы к сообщениям
Вы можете скачивать файлы