Loading...
Error

Скачать Динозавр: Тайна затерянного мира / Baby: Secret of the Lost Legend (Билл Л. Нортон) [1985, фантастика, приключения, семейный, BDRip] [720p] [MVO (SDI Media)]+[Eng] торрент без регистрации

Статистика раздачи
Размер:  4,64 GB   |    Скачан:  7 раз
Сидов:  1  [  0 KB/s  ]  
 
 
 
Автор Сообщение

Marsianka

[] 

Информация о фильме
Название: Динозавр: Тайна затерянного мира
Оригинальное название: Baby: Secret of the Lost Legend
Год выхода: 1985
Жанр: фантастика, приключения, семейный
Режиссер: Билл Л. Нортон
В ролях: Уильям Кэтт, Шон Янг, Патрик МакГуэн, Джулиан Феллоуз, Хью Куарши, Олу Джейкобс, Эдди Тэгоу, Эдвард Хардвик, Джулиан Карри

О фильме:
Семья палеонтологов обнаружила в Кот-д’Ивуар (Африка) самку и детеныша бронтозавра — последних из давно исчезнувших с планеты Земля динозавров. Теперь перед ними встала задача спасти животных от охотников...



Страна: США
Студия: Silver Screen Partners II, Touchstone Pictures
Продолжительность: 01:32:54
Перевод: Профессиональный многоголосый,закадровый

Файл
Кодек: h.264
Качество: BDRip 720p
Видео: MPEG-4 AVC, 5200 Кбит/с, 1280x544, 23,976 кадр/с

Русский (AC3, 6 ch, 448 Кбит/с) / Профессиональный многоголосый (SDI Media)
Английский (DTS, 6 ch, 1509 Кбит/с)
Субтитры: Нет
Семпл
Огромное спасибо FREEDONOR за Blu-ray [Custom]
General
Unique ID : 298200878619964190901556932968504731527 (0xE0576670BBC9088CA14CA2ABA121A787)
Complete name : D:uTorrentDinozavr.1985.BDRip.720p.MediaClub.mkv
Format : Matroska
Format version : Version 4 / Version 2
File size : 4.64 GiB
Duration : 1 h 32 min
Overall bit rate : 7 153 kb/s
Encoded date : UTC 2018-03-11 11:22:57 / UTC 2018-03-10T18:44:19Z
Writing application : mkvmerge v19.0.0 ('Brave Captain') 64-bit
Writing library : libebml v1.3.5 + libmatroska v1.4.8 / Lavf57.7.2
Cover : Yes
Attachments : cover.jpg

Video
ID : 1
Format : AVC
Format/Info : Advanced Video Codec
Format profile : High@L4.1
Format settings : CABAC / 11 Ref Frames
Format settings, CABAC : Yes
Format settings, RefFrames : 11 frames
Codec ID : V_MPEG4/ISO/AVC
Duration : 1 h 32 min
Bit rate : 5 200 kb/s
Width : 1 280 pixels
Height : 544 pixels
Display aspect ratio : 2.35:1
Frame rate mode : Constant
Frame rate : 23.976 (24000/1001) FPS
Color space : YUV
Chroma subsampling : 4:2:0
Bit depth : 8 bits
Scan type : Progressive
Bits/(Pixel*Frame) : 0.311
Stream size : 3.28 GiB (71%)
Title : BDRip by Silverok
Writing library : x264 core 148 r2708 86b7198
Encoding settings : cabac=1 / ref=11 / deblock=1:-3:-3 / analyse=0x3:0x113 / me=umh / subme=11 / psy=1 / psy_rd=1.00:0.00 / mixed_ref=1 / me_range=32 / chroma_me=1 / trellis=2 / 8x8dct=1 / cqm=0 / deadzone=21,11 / fast_pskip=0 / chroma_qp_offset=-2 / threads=12 / lookahead_threads=1 / sliced_threads=0 / nr=0 / decimate=0 / interlaced=0 / bluray_compat=0 / constrained_intra=0 / bframes=16 / b_pyramid=2 / b_adapt=1 / b_bias=0 / direct=1 / weightb=1 / open_gop=0 / weightp=2 / keyint=240 / keyint_min=24 / scenecut=40 / intra_refresh=0 / rc_lookahead=40 / rc=2pass / mbtree=0 / bitrate=5200 / ratetol=1.0 / qcomp=0.60 / qpmin=0 / qpmax=69 / qpstep=4 / cplxblur=20.0 / qblur=0.5 / vbv_maxrate=62500 / vbv_bufsize=78125 / nal_hrd=none / filler=0 / ip_ratio=1.40 / pb_ratio=1.30 / aq=1:1.00
Default : Yes
Forced : No
Color range : Limited
Color primaries : BT.709
Transfer characteristics : BT.709
Matrix coefficients : BT.709
Statistics Tags Issue : mkvmerge v19.0.0 ('Brave Captain') 64-bit 2018-03-11 11:22:57 / mkvmerge v19.0.0 ('Brave Captain') 64-bit 2018-03-11 11:22:57 / UTC 2018-03-10T18:44:19Z
FromStats_BitRate : 5197551
FromStats_Duration : 01:32:54.402000000
FromStats_FrameCount : 133651
FromStats_StreamSize : 3621654973

Audio #1
ID : 2
Format : AC-3
Format/Info : Audio Coding 3
Codec ID : A_AC3
Duration : 1 h 32 min
Bit rate mode : Constant
Bit rate : 448 kb/s
Channel(s) : 6 channels
Channel positions : Front: L C R, Side: L R, LFE
Sampling rate : 48.0 kHz
Frame rate : 31.250 FPS (1536 SPF)
Bit depth : 16 bits
Compression mode : Lossy
Delay relative to video : 11 s 11 ms
Stream size : 298 MiB (6%)
Title : Профессиональный многоголосый (SDI Media)
Language : Russian
Service kind : Complete Main
Default : Yes
Forced : No
Statistics Tags Issue : mkvmerge v19.0.0 ('Brave Captain') 64-bit 2018-03-11 11:22:57 / mkvmerge v19.0.0 ('Brave Captain') 64-bit 2018-03-11 11:22:57 / UTC 2018-03-10T18:44:19Z
FromStats_BitRate : 448000
FromStats_Duration : 01:32:43.392000000
FromStats_FrameCount : 173856
FromStats_StreamSize : 311549952

Audio #2
ID : 3
Format : DTS
Format/Info : Digital Theater Systems
Codec ID : A_DTS
Duration : 1 h 32 min
Bit rate mode : Constant
Bit rate : 1 509 kb/s
Channel(s) : 6 channels
Channel positions : Front: L C R, Side: L R, LFE
Sampling rate : 48.0 kHz
Frame rate : 93.750 FPS (512 SPF)
Bit depth : 16 bits
Compression mode : Lossy
Delay relative to video : 11 s 11 ms
Stream size : 1 003 MiB (21%)
Language : English
Default : No
Forced : No
Statistics Tags Issue : mkvmerge v19.0.0 ('Brave Captain') 64-bit 2018-03-11 11:22:57 / mkvmerge v19.0.0 ('Brave Captain') 64-bit 2018-03-11 11:22:57 / UTC 2018-03-10T18:44:19Z
FromStats_BitRate : 1508999
FromStats_Duration : 01:32:43.382000000
FromStats_FrameCount : 521567
FromStats_StreamSize : 1049392804

Menu
00:00:00.000 : :Chapter 1
00:12:27.163 : :Chapter 2
00:21:18.569 : :Chapter 3
00:32:48.800 : :Chapter 4
00:46:48.848 : :Chapter 5
00:58:30.799 : :Chapter 6
01:05:52.782 : :Chapter 7
01:14:16.077 : :Chapter 8
Релиз от: | Silverok



Скачать Динозавр.Тайна.затерянного.мира.Baby.Secret.of.the.Lost.Legend.(Билл.Л.Нортон).[1985.фантастика.приключения.семейный.BDRip].[720p].[MVO.(SDI.Media)]+[Eng].torrent без регистрации
Золото ЗОЛОТАЯ РАЗДАЧА! СКАЧАННОЕ НЕ ЗАСЧИТЫВАЕТСЯ! Золото
Дата: Зарегистрирован   [ Тип: внутренний ] Как тут cкачать?
MAGNET ссылка
MAGNET ссылка


Скачать .torrent

13 KB

Статус: проверено DHT
Скачан: торрент - 7 раз, раздача полностью - 0 раз
Размер: 4,64 GB
Оценка:  - (Голосов: 0)
Поблагодарили: 0
Поделиться ссылкой на эту раздачу с друзьями:
В контактеFacebookОдноклассникиTwitterLivejournalМой МирLiveinternet
 

 
Показать сообщения:    


Вы не можете начинать темы
Вы не можете отвечать на сообщения
Вы не можете редактировать свои сообщения
Вы не можете удалять свои сообщения
Вы не можете голосовать в опросах
Вы не можете прикреплять файлы к сообщениям
Вы можете скачивать файлы