Loading...
Error

Скачать Кровавая закусочная / Blood Diner (Джеки Конг) [1987, ужасы, комедия, BDRip] [1080p] [Remastered] [AVO]x2+[Eng]+[Sub Eng] торрент без регистрации

Статистика раздачи
Размер:  7,54 GB   |    Скачан:  13 раз
Сидов:  1  [  0 KB/s  ]  
 
 
 
Автор Сообщение

Marsianka

[] 

Название: Кровавая закусочная
Оригинальное название: Blood Diner
Год выхода: 1987

Страна: США
Студия: PMS Filmworks, Vestron Pictures
Продолжительность: 01:28:02
Жанр: ужасы, комедия

Режиссер: Джеки Конг
В ролях: Рик Буркс, Карл Крю, Роджер Доэ, Ланетт Ла Френс, Лиза Гуггенхейм, Макс Моррис, Дино Ли, ...

Перевод:
- Авторский (одноголосый, закадровый) Котов Вячеслав Олегович
- Авторский (одноголосый, закадровый) Карцев Петр

О фильме: Кровавая закусочная — самый популярный ресторанчик в городе. Еда такая вкусная, как по мамочкиным рецептам. Только вот приготавливают все эти деликатесы из посетителей — главным образом, юных и красивых дев, включая даже дочь шефа местной полиции.
Дело в том, что управляют ресторанчиком братья-каннибалы Намтут, пытающиеся вызвать своими жертвоприношениями из сверхудаленного измерения древнюю смертоносную богиню крови и похоти Шитар.
Но все каннибальские зверства владельцев Кровавой закусочной ничто по сравнению с самой богиней, заполучившей, в конце концов, самих братишек на десерт…



Кодек: x264
Качество: BDRip 1080p
Видео: 1920x1080, 11700 kbps, 23,976 fps
Аудио #1: AC-3, 2 ch, 192 kbps (Rus) - AVO Котов Вячеслав Олегович (mupoxa)
Аудио #2: AC-3, 2 ch, 192 kbps (Rus) - AVO Карцев Петр
Аудио #3: AC-3, 2 ch, 192 kbps (Eng)
Субтитры: английские
Общее
Уникальный идентификатор : 202712143994966897609179263223709159984 (0x9880F056941E44D9A266341A1BFDD230)
Полное имя : Кровавая закусочная (Blood Diner) 1987 BDRip 1080p.mkv
Формат : Matroska
Версия формата : Version 2
Размер файла : 7,54 Гбайт
Продолжительность : 1 ч. 28 м.
Общий поток : 12,3 Мбит/сек
Дата кодирования : UTC 2018-03-10 17:23:37
Программа кодирования : mkvmerge v4.0.0 ('The Stars were mine') сборка от Jun 6 2010 16:18:42
Библиотека кодирования : libebml v1.0.0 + libmatroska v1.0.0

Видео
Идентификатор : 1
Формат : AVC
Формат/Информация : Advanced Video Codec
Профиль формата : High@L4.1
Параметр CABAC формата : Да
Параметр ReFrames формата : 4 кадра
Идентификатор кодека : V_MPEG4/ISO/AVC
Продолжительность : 1 ч. 28 м.
Битрейт : 11,7 Мбит/сек
Ширина : 1920 пикселей
Высота : 1080 пикселей
Соотношение сторон : 16:9
Режим частоты кадров : Постоянный
Частота кадров : 23,976 (24000/1001) кадра/сек
Цветовое пространство : YUV
Субдискретизация насыщенности : 4:2:0
Битовая глубина : 8 бит
Тип развёртки : Прогрессивная
Бит/(Пиксели*Кадры) : 0.235
Размер потока : 7,04 Гбайт (93%)
Библиотека кодирования : x264 core 148 r2744 b97ae06
Настройки программы : cabac=1 / ref=4 / deblock=1:-3:-3 / analyse=0x3:0x113 / me=umh / subme=8 / psy=1 / psy_rd=1.00:0.25 / mixed_ref=1 / me_range=24 / chroma_me=1 / trellis=1 / 8x8dct=1 / cqm=0 / deadzone=21,11 / fast_pskip=1 / chroma_qp_offset=-4 / threads=30 / lookahead_threads=5 / sliced_threads=0 / nr=0 / decimate=1 / interlaced=0 / bluray_compat=0 / constrained_intra=0 / bframes=3 / b_pyramid=2 / b_adapt=1 / b_bias=0 / direct=3 / weightb=1 / open_gop=0 / weightp=2 / keyint=240 / keyint_min=24 / scenecut=40 / intra_refresh=0 / rc_lookahead=50 / rc=2pass / mbtree=1 / bitrate=11691 / ratetol=1.0 / qcomp=0.60 / qpmin=0 / qpmax=69 / qpstep=4 / cplxblur=20.0 / qblur=0.5 / ip_ratio=1.40 / aq=1:0.75
Язык : English
Default : Нет
Forced : Нет

Аудио #1
Идентификатор : 2
Формат : AC-3
Формат/Информация : Audio Coding 3
Расширение режима : CM (complete main)
Параметр Endianness формата : Big
Идентификатор кодека : A_AC3
Продолжительность : 1 ч. 28 м.
Вид битрейта : Постоянный
Битрейт : 192 Кбит/сек
Каналы : 2 канала
Расположение каналов : Front: L R
Частота : 48,0 КГц
Частота кадров : 31,250 кадров/сек (1536 spf)
Метод сжатия : С потерями
Размер потока : 121 Мбайт (2%)
Заголовок : AVO Котов Вячеслав Олегович (mupoxa)
Язык : Russian
Default : Нет
Forced : Нет

Аудио #2
Идентификатор : 3
Формат : AC-3
Формат/Информация : Audio Coding 3
Расширение режима : CM (complete main)
Параметр Endianness формата : Big
Идентификатор кодека : A_AC3
Продолжительность : 1 ч. 28 м.
Вид битрейта : Постоянный
Битрейт : 192 Кбит/сек
Каналы : 2 канала
Расположение каналов : Front: L R
Частота : 48,0 КГц
Частота кадров : 31,250 кадров/сек (1536 spf)
Метод сжатия : С потерями
Размер потока : 121 Мбайт (2%)
Заголовок : AVO Карцев Петр
Язык : Russian
Default : Нет
Forced : Нет

Аудио #3
Идентификатор : 4
Формат : AC-3
Формат/Информация : Audio Coding 3
Расширение режима : CM (complete main)
Параметр Endianness формата : Big
Идентификатор кодека : A_AC3
Продолжительность : 1 ч. 28 м.
Вид битрейта : Постоянный
Битрейт : 192 Кбит/сек
Каналы : 2 канала
Расположение каналов : Front: L R
Частота : 48,0 КГц
Частота кадров : 31,250 кадров/сек (1536 spf)
Метод сжатия : С потерями
Размер потока : 121 Мбайт (2%)
Язык : English
Default : Нет
Forced : Нет

Текст #1
Идентификатор : 5
Формат : UTF-8
Идентификатор кодека : S_TEXT/UTF8
Идентификатор кодека/Информация : UTF-8 Plain Text
Язык : English
Default : Нет
Forced : Нет

Текст #2
Идентификатор : 6
Формат : UTF-8
Идентификатор кодека : S_TEXT/UTF8
Идентификатор кодека/Информация : UTF-8 Plain Text
Заголовок : SDH
Язык : English
Default : Нет
Forced : Нет

Меню
00:00:00.000 : en:00:00:00.000
00:05:41.841 : en:00:05:41.841
00:15:53.953 : en:00:15:53.953
00:24:01.982 : en:00:24:01.982
00:31:53.453 : en:00:31:53.453
00:42:05.940 : en:00:42:05.940
00:47:13.372 : en:00:47:13.372
00:56:22.963 : en:00:56:22.963
01:02:31.873 : en:01:02:31.873
01:11:14.937 : en:01:11:14.937
01:18:35.336 : en:01:18:35.336
01:25:10.939 : en:01:25:10.939



Скачать Кровавая.закусочная.Blood.Diner.(Джеки.Конг).[1987.ужасы.комедия.BDRip].[1080p].[Remastered].[AVO]x2+[Eng]+[Sub.Eng].torrent без регистрации
Золото ЗОЛОТАЯ РАЗДАЧА! СКАЧАННОЕ НЕ ЗАСЧИТЫВАЕТСЯ! Золото
Дата: Зарегистрирован   [ Тип: внутренний ] Как тут cкачать?
MAGNET ссылка
MAGNET ссылка


Скачать .torrent

39 KB

Статус: проверено DHT
Скачан: торрент - 13 раз, раздача полностью - 52 раз
Размер: 7,54 GB
Оценка:  5 (Голосов: 1)
Поблагодарили: 1
Поделиться ссылкой на эту раздачу с друзьями:
В контактеFacebookОдноклассникиTwitterLivejournalМой МирLiveinternet
 

 
Показать сообщения:    


Вы не можете начинать темы
Вы не можете отвечать на сообщения
Вы не можете редактировать свои сообщения
Вы не можете удалять свои сообщения
Вы не можете голосовать в опросах
Вы не можете прикреплять файлы к сообщениям
Вы можете скачивать файлы