Loading...
Error

Скачать Нормандия - Неман / Normandie – Niémen (Жан Древиль) [1959, военный, SATRip-AVC] торрент без регистрации

Статистика раздачи
Размер:  2,66 GB   |    Скачан:  12 раз
Сидов:  4  [  0 KB/s  ]  
 
 
 
Автор Сообщение

Marsianka

[] 

Нормандия - Неман


Страна: СССР, Франция
Жанр: военный
Год выпуска: 1959
Продолжительность: 01:53:42
Перевод: Не требуется
Режиссер: Жан Древиль
В ролях: Николай Рыбников, Пьер Трабо, Жани Эспозито, Жерар Даррьё, Андре Умански, Жак Ришар, Жорж Ривьер, Жан-Клод Мишель,
Николя Батай, Марк Кассо, Ролан Шалос, Жан Убе, Ришар Винклер, Владимир Бамдасов, Владимир Гусев, Виталий Доронин, Николай Лебедев,
Юрий Медведев, Валентин Гафт, Нина Гребешкова, Валентин Кулик, Олег Мокшанцев, Владимир Соловьёв, Наталья Крачковская, Ян Янакиев, Елена Вольская

Описание: О боевой деятельности летчиков французской эскадрильи "Нормандия-Неман", сражавшихся в годы Великой Отечественной войны в рядах Советских вооруженных сил.



Кодек: х264
Качество: SATRip-AVC
Видео: MPEG-4 AVC, 718х556@766x556, 25 fps, 3150 Кбит/с
Аудио: АС3, 2h, 192 Кбит/с
Субтитры: Нет

Доп. инфо: За исходный DVB спасибо Cheef mate

x264 [info]: frame I:1082 Avg QP:16.45 size: 76486
x264 [info]: frame P:39222 Avg QP:18.80 size: 36092
x264 [info]: frame B:130308 Avg QP:21.23 size: 9126

Общее
Уникальный идентификатор : 226806494271092322016584370601134509004 (0xAAA157861756E8B4A907A596A14DCBCC)
Полное имя : I:сссрНормандия неман 1959_SATRip-AVC_KORSAR.mkv
Формат : Matroska
Версия формата : Version 2
Размер файла : 2,66 Гбайт
Продолжительность : 1 ч. 53 м.
Общий поток : 3344 Кбит/сек
Дата кодирования : UTC 2018-02-27 23:06:24
Программа кодирования : mkvmerge v5.8.0 ('No Sleep / Pillow') built on Sep 2 2012 15:37:04
Библиотека кодирования : libebml v1.2.3 + libmatroska v1.3.0

Видео
Идентификатор : 1
Формат : AVC
Формат/Информация : Advanced Video Codec
Профиль формата : High@L4.1
Настройки формата : CABAC / 15 Ref Frames
Параметр CABAC формата : Да
Параметр RefFrames формата : 15 кадров
Идентификатор кодека : V_MPEG4/ISO/AVC
Продолжительность : 1 ч. 53 м.
Битрейт : 3150 Кбит/сек
Ширина : 718 пикселей
Высота : 556 пикселей
Соотношение сторон : 1,376
Соотношение сторон в оригинале : 1,377
Режим частоты кадров : Постоянный
Частота кадров : 25,000 кадров/сек
Цветовое пространство : YUV
Субдискретизация насыщенности : 4:2:0
Битовая глубина : 8 бит
Тип развёртки : Прогрессивная
Бит/(Пиксели*Кадры) : 0.316
Размер потока : 2,45 Гбайт (92%)
Библиотека кодирования : x264 core 152 r2851kMod ba24899
Настройки программы : cabac=1 / ref=15 / deblock=1:-2:-2 / analyse=0x3:0x133 / me=umh / subme=11 / psy=1 / fade_compensate=0.00 / psy_rd=1.05:0.10 / mixed_ref=1 / me_range=48 / chroma_me=1 / trellis=2 / 8x8dct=1 / cqm=0 / deadzone=21,11 / fast_pskip=0 / chroma_qp_offset=-3 / threads=12 / lookahead_threads=2 / sliced_threads=0 / nr=0 / decimate=0 / interlaced=0 / bluray_compat=0 / constrained_intra=0 / bframes=9 / b_pyramid=2 / b_adapt=2 / b_bias=0 / direct=3 / weightb=1 / open_gop=0 / weightp=2 / keyint=250 / keyint_min=25 / scenecut=40 / intra_refresh=0 / rc_lookahead=40 / rc=2pass / mbtree=0 / bitrate=3150 / ratetol=1.0 / qcomp=0.60 / qpmin=0 / qpmax=39 / qpstep=4 / cplxblur=20.0 / qblur=0.5 / vbv_maxrate=50000 / vbv_bufsize=62500 / nal_hrd=none / filler=0 / ip_ratio=1.25 / pb_ratio=1.30 / aq=1:1.00
Язык : English
Default : Да
Forced : Нет
Цветовой диапазон : Limited
Основные цвета : BT.601 PAL
Характеристики трансфера : BT.470 System B, BT.470 System G
Коэффициенты матрицы : BT.470 System B, BT.470 System G

Аудио
Идентификатор : 2
Формат : AC-3
Формат/Информация : Audio Coding 3
Параметр Endianness формата : Big
Идентификатор кодека : A_AC3
Продолжительность : 1 ч. 53 м.
Вид битрейта : Постоянный
Битрейт : 192 Кбит/сек
Каналы : 2 канала
Расположение каналов : Front: L R
Частота : 48,0 КГц
Частота кадров : 31,250 кадров/сек (1536 SPF)
Битовая глубина : 16 бит
Метод сжатия : С потерями
Задержка видео : 19 мс.
Размер потока : 156 Мбайт (6%)
Язык : Russian
Default : Да
Forced : Нет



Скачать Нормандия.-.Неман.Normandie.–.Niémen.(Жан.Древиль).[1959.военный.SATRip-AVC].torrent без регистрации
Золото ЗОЛОТАЯ РАЗДАЧА! СКАЧАННОЕ НЕ ЗАСЧИТЫВАЕТСЯ! Золото
Дата: Зарегистрирован   [ Тип: внешний ] Как тут cкачать?
MAGNET ссылка
MAGNET ссылка


Скачать .torrent

14 KB

Статус: проверено DHT
Скачан: торрент - 12 раз, раздача полностью - 0 раз
Размер: 2,66 GB
Оценка:  - (Голосов: 0)
Поблагодарили: 0
Поделиться ссылкой на эту раздачу с друзьями:
В контактеFacebookОдноклассникиTwitterLivejournalМой МирLiveinternet
 

 
Показать сообщения:    


Вы не можете начинать темы
Вы не можете отвечать на сообщения
Вы не можете редактировать свои сообщения
Вы не можете удалять свои сообщения
Вы не можете голосовать в опросах
Вы не можете прикреплять файлы к сообщениям
Вы можете скачивать файлы