Loading...
Error

Скачать Бич Божий (Олег Фиалко) [1988, драма, SATRip-AVC] торрент без регистрации

Статистика раздачи
Размер:  1,62 GB   |    Скачан:  11 раз
Сидов:  1  [  0 KB/s  ]  
 
 
 
Автор Сообщение

Marsianka

[] 

Бич Божий

Страна: СССР
Жанр: драма
Год выпуска: 1988
Продолжительность: 01:22:56
Перевод: Не требуется
Режиссер: Олег Фиалко
В ролях: Виктор Проскурин, Александр Мартынов, Ваня Янчук, Димитрий Копп,
Лариса Шахворостова, Людмила Лобза,
Эрнст Романов, Ольга Матешко, Анастасия Бедрединова, Тамара Муженко, Катя Казанцева, Юрий Дубровин,
Петр Сорокин, Юра Доцюк, Тоня Фиалко

Описание: 40-летний бродяга Леонид Ляшенко ограбил в поезде человека явно богатого и преуспевающего.
Роясь в содержимом ворованного бумажника, он обнаруживает в нём паспорт на имя своего давнишнего друга детства Валеры Куненко.
Ему вспомнились 50-е годы, маленький провинциальный городок.



Кодек: х264
Качество: SATRip-AVC
Видео: MPEG-4 AVC, 698х570@754x570, 25 fps, 2600 Кбит/с
Аудио: AC3, 2h, 192 Кбит/с

x264 [info]: frame I:625 Avg QP:16.57 size: 71812
x264 [info]: frame P:25190 Avg QP:19.23 size: 31956
x264 [info]: frame B:98584 Avg QP:20.84 size: 7784

Общее
Уникальный идентификатор : 230044730168902650323521211753439401761 (0xAD1100E1515CDC22B7EAA5B783EF9721)
Полное имя : E:Мои рипыБич божий 1988_SATRip-AVC_KORSAR.mkv
Формат : Matroska
Версия формата : Version 2
Размер файла : 1,62 Гбайт
Продолжительность : 1 ч. 22 м.
Общий поток : 2794 Кбит/сек
Дата кодирования : UTC 2018-01-30 02:09:47
Программа кодирования : mkvmerge v5.8.0 ('No Sleep / Pillow') built on Sep 2 2012 15:37:04
Библиотека кодирования : libebml v1.2.3 + libmatroska v1.3.0

Видео
Идентификатор : 1
Формат : AVC
Формат/Информация : Advanced Video Codec
Профиль формата : High@L4.1
Настройки формата : CABAC / 15 Ref Frames
Параметр CABAC формата : Да
Параметр RefFrames формата : 15 кадров
Идентификатор кодека : V_MPEG4/ISO/AVC
Продолжительность : 1 ч. 22 м.
Битрейт : 2600 Кбит/сек
Ширина : 698 пикселей
Высота : 570 пикселей
Соотношение сторон : 4:3
Режим частоты кадров : Постоянный
Частота кадров : 25,000 кадров/сек
Цветовое пространство : YUV
Субдискретизация насыщенности : 4:2:0
Битовая глубина : 8 бит
Тип развёртки : Прогрессивная
Бит/(Пиксели*Кадры) : 0.261
Размер потока : 1,47 Гбайт (91%)
Библиотека кодирования : x264 core 152 r2851kMod ba24899
Настройки программы : cabac=1 / ref=15 / deblock=1:-2:-1 / analyse=0x3:0x133 / me=umh / subme=11 / psy=1 / fade_compensate=0.00 / psy_rd=1.05:0.10 / mixed_ref=1 / me_range=48 / chroma_me=1 / trellis=2 / 8x8dct=1 / cqm=0 / deadzone=21,11 / fast_pskip=0 / chroma_qp_offset=-3 / threads=12 / lookahead_threads=3 / sliced_threads=0 / nr=0 / decimate=0 / interlaced=0 / bluray_compat=0 / constrained_intra=0 / bframes=12 / b_pyramid=2 / b_adapt=2 / b_bias=0 / direct=3 / weightb=1 / open_gop=0 / weightp=2 / keyint=250 / keyint_min=25 / scenecut=40 / intra_refresh=0 / rc_lookahead=40 / rc=2pass / mbtree=0 / bitrate=2600 / ratetol=1.0 / qcomp=0.60 / qpmin=0 / qpmax=39 / qpstep=4 / cplxblur=20.0 / qblur=0.5 / vbv_maxrate=50000 / vbv_bufsize=62500 / nal_hrd=none / filler=0 / ip_ratio=1.25 / pb_ratio=1.30 / aq=1:1.00
Язык : English
Default : Да
Forced : Нет
Цветовой диапазон : Limited
Основные цвета : BT.601 PAL
Характеристики трансфера : BT.470 System B, BT.470 System G
Коэффициенты матрицы : BT.470 System B, BT.470 System G

Аудио
Идентификатор : 2
Формат : AC-3
Формат/Информация : Audio Coding 3
Параметр Endianness формата : Big
Идентификатор кодека : A_AC3
Продолжительность : 1 ч. 22 м.
Вид битрейта : Постоянный
Битрейт : 192 Кбит/сек
Каналы : 2 канала
Расположение каналов : Front: L R
Частота : 48,0 КГц
Частота кадров : 31,250 кадров/сек (1536 SPF)
Битовая глубина : 16 бит
Метод сжатия : С потерями
Размер потока : 114 Мбайт (7%)
Язык : Russian
Default : Да
Forced : Нет



Скачать Бич.Божий.(Олег.Фиалко).[1988.драма.SATRip-AVC].torrent без регистрации
Золото ЗОЛОТАЯ РАЗДАЧА! СКАЧАННОЕ НЕ ЗАСЧИТЫВАЕТСЯ! Золото
Дата: Зарегистрирован   [ Тип: внутренний ] Как тут cкачать?
MAGNET ссылка
MAGNET ссылка


Скачать .torrent

17 KB

Статус: проверено DHT
Скачан: торрент - 11 раз, раздача полностью - 1 раз
Размер: 1,62 GB
Оценка:  - (Голосов: 0)
Поблагодарили: 0
Поделиться ссылкой на эту раздачу с друзьями:
В контактеFacebookОдноклассникиTwitterLivejournalМой МирLiveinternet
 

 
Показать сообщения:    


Вы не можете начинать темы
Вы не можете отвечать на сообщения
Вы не можете редактировать свои сообщения
Вы не можете удалять свои сообщения
Вы не можете голосовать в опросах
Вы не можете прикреплять файлы к сообщениям
Вы можете скачивать файлы