Loading...
Error

Скачать Веселые ребята (Григорий Александров) [1934, комедия, мюзикл, HDTVRip] [720p] [Цветная версия] торрент без регистрации

Статистика раздачи
Размер:  2,16 GB   |    Скачан:  18 раз

Полного источника не было: 25 минут

 
 
 
Автор Сообщение

Marsianka

[] 

Веселые ребята

Год выхода: 1934
Жанр: комедия, мюзикл
Режиссер: Григорий Александров
В ролях: Леонид Утёсов, Любовь Орлова, Мария Стрелкова, Елена Тяпкина, Фёдор Курихин, Роберт Эрдман, Арнольд Арнольд, Эммануил Геллер, Александр Костомолоцкий, Орест Кандат, Николай Отто, Юрий Медведев

О фильме: «Веселые ребята» – первая музыкальная комедия, снятая в СССР. Теперь посмотреть ее можно и в цветной версии!Это веселая музыкальная история о похождениях простодушного и талантливого пастуха-музыканта Кости Потехина (Леонид Утесов). Однажды его случайно приняли за модного заграничного артиста. Везению его нет предела: у него и его оркестра появился шанс выступить не где-нибудь, а на сцене Большого театра! В самом деле, огромный шаг для музыкантов, которым приходится репетировать на похоронах.«Веселые ребята» стали режиссерским дебютом Григория Александрова («Цирк», «Весна», «Волга-Волга»). На создание фильма его вдохновила командировка в Европу, США и Мексику. Именно во время этой поездки он услышал народную мексиканскую песню «La Adelita» времен революции 1910–1920 годов. Благодаря ей появилась заглавная тема фильма — «Марш веселых ребят», который написал композитор Исаак Дунаевский. Картина не только снискала всенародную любовь на родине, но и получила мировую известность. За рубежом ее демонстрировали под названием «Москва смеется». Кроме того, режиссерская работа в 1934 году была отмечена призом Венецианского кинофестиваля.



Страна: СССР
Студия: Мосфильм
Продолжительность: 01:29:44
Перевод: Не требуется

Кодек: x264
Качество: HDTVRip 720p
Видео: MPEG-4 AVC, 864x720, 25,000 кадр/с, 2932 Кбит/с
Звук: Русский (AC3, 2 ch, 448 Кбит/с)

x264 [info]: frame I:1000 Avg QP:17.64 size: 80835
x264 [info]: frame P:32266 Avg QP:19.39 size: 36989
x264 [info]: frame B:101347 Avg QP:22.12 size: 7342
x264 [info]: consecutive B-frames: 2.6% 3.1% 10.6% 29.4% 22.3% 29.2% 2.0% 0.7% 0.2% 0.1%

Общее
Уникальный идентификатор : 236731762756996770953235143521935626706 (0xB218E10A9BDA9CD3AB99F9AF54B911D2)
Полное имя : D:Весёлые ребята_1934-HDTVRip 720p_KORSAR.mkv
Формат : Matroska
Версия формата : Version 2
Размер файла : 2,16 Гбайт
Продолжительность : 1 ч. 29 м.
Общий поток : 3449 Кбит/сек
Дата кодирования : UTC 2018-03-07 14:00:56
Программа кодирования : mkvmerge v5.8.0 ('No Sleep / Pillow') built on Sep 2 2012 15:37:04
Библиотека кодирования : libebml v1.2.3 + libmatroska v1.3.0

Видео
Идентификатор : 1
Формат : AVC
Формат/Информация : Advanced Video Codec
Профиль формата : High@L4.1
Параметр CABAC формата : Да
Параметр RefFrames формата : 13 кадров
Идентификатор кодека : V_MPEG4/ISO/AVC
Продолжительность : 1 ч. 29 м.
Битрейт : 2932 Кбит/сек
Ширина : 864 пикселя
Высота : 720 пикселей
Соотношение сторон : 1,200
Режим частоты кадров : Постоянный
Частота кадров : 25,000 кадров/сек
Цветовое пространство : YUV
Субдискретизация насыщенности : 4:2:0
Битовая глубина : 8 бит
Тип развёртки : Прогрессивная
Бит/(Пиксели*Кадры) : 0.189
Размер потока : 1,84 Гбайт (85%)
Библиотека кодирования : x264 core 148 r2744kMod b97ae06
Настройки программы : cabac=1 / ref=13 / deblock=1:-2:1 / analyse=0x3:0x113 / me=umh / subme=10 / psy=1 / fade_compensate=0.00 / psy_rd=0.95:0.10 / mixed_ref=1 / me_range=32 / chroma_me=1 / trellis=2 / 8x8dct=1 / cqm=0 / deadzone=21,11 / fast_pskip=1 / chroma_qp_offset=-3 / threads=12 / lookahead_threads=2 / sliced_threads=0 / nr=0 / decimate=1 / interlaced=0 / bluray_compat=0 / constrained_intra=0 / bframes=9 / b_pyramid=2 / b_adapt=2 / b_bias=0 / direct=1 / weightb=1 / open_gop=0 / weightp=2 / keyint=250 / keyint_min=25 / scenecut=40 / intra_refresh=0 / rc=crf / mbtree=0 / crf=18.0000 / qcomp=0.63 / qpmin=0 / qpmax=39 / qpstep=4 / ip_ratio=1.40 / pb_ratio=1.30 / aq=1:0.90
Язык : English
Default : Да
Forced : Нет
Цветовой диапазон : Limited
Основные цвета : BT.709
Характеристики трансфера : BT.709
Коэффициенты матрицы : BT.709

Аудио
Идентификатор : 2
Формат : AC-3
Формат/Информация : Audio Coding 3
Параметр Endianness формата : Big
Идентификатор кодека : A_AC3
Продолжительность : 1 ч. 29 м.
Вид битрейта : Постоянный
Битрейт : 448 Кбит/сек
Каналы : 2 канала
Расположение каналов : Front: L R
Частота : 48,0 КГц
Частота кадров : 31,250 кадров/сек (1536 SPF)
Битовая глубина : 16 бит
Метод сжатия : С потерями
Задержка видео : 26 мс.
Размер потока : 288 Мбайт (13%)
Язык : Russian
Default : Да
Forced : Нет



Скачать Веселые.ребята.(Григорий.Александров).[1934.комедия.мюзикл.HDTVRip].[720p].[Цветная.версия].torrent без регистрации
Золото ЗОЛОТАЯ РАЗДАЧА! СКАЧАННОЕ НЕ ЗАСЧИТЫВАЕТСЯ! Золото
Дата: Зарегистрирован   [ Тип: внутренний ] Как тут cкачать?
MAGNET ссылка
MAGNET ссылка


Скачать .torrent

12 KB

Статус: проверено DHT
Скачан: торрент - 18 раз, раздача полностью - 3 раз
Размер: 2,16 GB
Оценка:  - (Голосов: 0)
Поблагодарили: 1
Поделиться ссылкой на эту раздачу с друзьями:
В контактеFacebookОдноклассникиTwitterLivejournalМой МирLiveinternet
 

 
Показать сообщения:    


Вы не можете начинать темы
Вы не можете отвечать на сообщения
Вы не можете редактировать свои сообщения
Вы не можете удалять свои сообщения
Вы не можете голосовать в опросах
Вы не можете прикреплять файлы к сообщениям
Вы можете скачивать файлы