Loading...
Error

Скачать Гладиатор / Gladiator (Роуди Херрингтон) [1992, Боевик, драма, спорт, экранизация, WEB-DL] [720p] 2x[MVO] торрент без регистрации

Статистика раздачи
Размер:  3,3 GB   |    Скачан:  7 раз
Сидов:  1  [  0 KB/s  ]  
 
 
 
Автор Сообщение

leon030982

[] 

Гладиатор / Gladiator

Год выпуска: 1992
Жанр: Боевик, драма, спорт, экранизация
Страна: США
Продолжительность: 01:41:52
Перевод: Профессиональный (многоголосый)

Режиссер: Роуди Херрингтон

В ролях: Джеймс Маршалл, Кьюба Гудинг мл., Роберт Лоджа, Осси Дэвис, Кара Буоно, Джон Седа, Т. Э. Расселл, Дуэйн А. Перри, Таб Бэйкер, Брайан Деннехи

О фильме:

Подпольный боксерский ринг, где не существует правил, и каждая схватка может оказаться последней. Лучшие друзья Джеймс и Линкольн — восходящие звезды кровавого спорта. Один дерется, чтобы отдать долг своего отца, другой — чтобы выбраться из негритянского гетто. Но на пути чемпионов встает жестокий устроитель боев. Он нашел каждому из них идеального, по его мнению, соперника: в решающем бою Джеймс и Линкольн должны встретиться друг с другом. Экранизация по произведению: Джордже Миличевич.



Файл
Кодек: MPEG-4 AVC
Качество: WEB-DL 720p
Видео: 4000 Кбит/с, 1280x720, 23.976 fps
Звук:
Аудио#1: Russian: 48 kHz, AC3, 2/0 (L,R) ch, ~192.00 kbps avg |Многоголосый закадровый|
Аудио#2: Russian: 48 kHz, AC3, 2/0 (L,R) ch, ~192.00 kbps avg |Многоголосый закадровый|
Аудио#3: English: 48 kHz, AAC, 2/0 (L,R) ch, ~160.00 kbps avg
Субтитры: Russian, English
General
Unique ID : 180573145035959875771552741354815648589 (0x87D91F6A6D3FFFA3B32982889080734D)
Complete name : E:\Gladiator.1992.720р.WEB-DL.Rus.Eng.HDCLUB.mkv
Format : Matroska
Format version : Version 2
File size : 3.30 GiB
Duration : 1 h 41 min
Overall bit rate : 4 632 kb/s
Movie name : Gladiator (1992) - Release for HDCLUB by doclogan
Encoded date : UTC 2012-12-15 05:22:28
Writing application : mkvmerge v5.8.0 ('No Sleep / Pillow') built on Sep 2 2012 15:37:04
Writing library : libebml v1.2.3 + libmatroska v1.3.0

Video
ID : 1
Format : AVC
Format/Info : Advanced Video Codec
Format profile : High@L3.1
Format settings : 2 Ref Frames
Format settings, CABAC : No
Format settings, RefFrames : 2 frames
Codec ID : V_MPEG4/ISO/AVC
Duration : 1 h 41 min
Width : 1 280 pixels
Height : 720 pixels
Display aspect ratio : 16:9
Frame rate mode : Constant
Frame rate : 23.976 FPS
Color space : YUV
Chroma subsampling : 4:2:0
Bit depth : 8 bits
Scan type : Progressive
Title : Release for HDCLUB by doclogan
Language : English
Default : Yes
Forced : No
Color range : Limited
Color primaries : BT.709
Transfer characteristics : BT.709
Matrix coefficients : BT.709

Audio #1
ID : 2
Format : AC-3
Format/Info : Audio Coding 3
Format settings, Endianness : Big
Codec ID : A_AC3
Duration : 1 h 41 min
Bit rate mode : Constant
Bit rate : 192 kb/s
Channel(s) : 2 channels
Channel positions : Front: L R
Sampling rate : 48.0 kHz
Frame rate : 31.250 FPS (1536 SPF)
Bit depth : 16 bits
Compression mode : Lossy
Stream size : 140 MiB (4%)
Title : DD 2.0 @ 192 kbps – Многоголосый закадровый
Language : Russian
Service kind : Complete Main
Default : Yes
Forced : No

Audio #2
ID : 3
Format : AC-3
Format/Info : Audio Coding 3
Format settings, Endianness : Big
Codec ID : A_AC3
Duration : 1 h 41 min
Bit rate mode : Constant
Bit rate : 192 kb/s
Channel(s) : 2 channels
Channel positions : Front: L R
Sampling rate : 48.0 kHz
Frame rate : 31.250 FPS (1536 SPF)
Bit depth : 16 bits
Compression mode : Lossy
Stream size : 140 MiB (4%)
Title : DD 2.0 @ 192 kbps – Многоголосый закадровый
Language : Russian
Service kind : Complete Main
Default : No
Forced : No

Audio #3
ID : 4
Format : AAC
Format/Info : Advanced Audio Codec
Format profile : LC
Codec ID : A_AAC-2
Duration : 1 h 41 min
Channel(s) : 2 channels
Channel positions : Front: L R
Sampling rate : 48.0 kHz
Frame rate : 46.875 FPS (1024 SPF)
Compression mode : Lossy
Title : AAC 2.0 @ ~160 kbps
Language : English
Default : No
Forced : No

Text #1
ID : 5
Format : UTF-8
Codec ID : S_TEXT/UTF8
Codec ID/Info : UTF-8 Plain Text
Language : Russian
Default : No
Forced : No

Text #2
ID : 6
Format : UTF-8
Codec ID : S_TEXT/UTF8
Codec ID/Info : UTF-8 Plain Text
Language : English
Default : No
Forced : No

Menu
00:00:00.000 : en:Start
00:03:04.000 : en:First Day At School
00:07:20.000 : en:Troopers & Angels
00:10:45.000 : en:Friends Of Big John
00:12:22.000 : en:New Dishwasher
00:16:16.000 : en:Pappy Jack
00:19:56.000 : en:Great News
00:24:15.000 : en:Warming Up
00:28:12.000 : en:Black Death
00:36:04.000 : en:Mr. Horn
00:45:12.000 : en:His Father's Markers
00:48:46.000 : en:Street Fight
00:52:12.000 : en:Lincoln In The Ring
00:54:20.000 : en:"Tell Me About Horn."
00:55:38.000 : en:A Promising Student
00:57:18.000 : en:Walking Dawn Home
00:59:43.000 : en:Gladiators
01:02:24.000 : en:Romano's Last Fight
01:06:08.000 : en:Dad Checks In
01:10:08.000 : en:Brain Dead
01:11:58.000 : en:A Nice Clean Fight
01:14:16.000 : en:Black Beauty
01:15:50.000 : en:Dawn At Night
01:16:59.000 : en:"Could Be A Bleed."
01:19:17.000 : en:Change Of Opponents
01:24:44.000 : en:Tommy Vs. Lincoln
01:29:14.000 : en:Saying No To Horn
01:31:51.000 : en:Horn Vs. Riley



Скачать Гладиатор.Gladiator.(Роуди.Херрингтон).[1992.Боевик.драма.спорт.экранизация.WEB-DL].[720p].2x[MVO].torrent без регистрации
Золото ЗОЛОТАЯ РАЗДАЧА! СКАЧАННОЕ НЕ ЗАСЧИТЫВАЕТСЯ! Золото
Дата: Зарегистрирован   [ Тип: внутренний ] Как тут cкачать?
MAGNET ссылка
MAGNET ссылка


Скачать .torrent

17 KB

Статус: проверено DHT
Скачан: торрент - 7 раз, раздача полностью - 0 раз
Размер: 3,3 GB
Оценка:  - (Голосов: 0)
Поблагодарили: 0
Поделиться ссылкой на эту раздачу с друзьями:
В контактеFacebookОдноклассникиTwitterLivejournalМой МирLiveinternet
 

 
Показать сообщения:    


Вы не можете начинать темы
Вы не можете отвечать на сообщения
Вы не можете редактировать свои сообщения
Вы не можете удалять свои сообщения
Вы не можете голосовать в опросах
Вы не можете прикреплять файлы к сообщениям
Вы можете скачивать файлы