Loading...
Error

Скачать Пудра / Powder (Виктор Сальва) [1995, фантастика, драма, WEB-DLRip] [720p] [DVO]x3+[AVO]+[Eng]+[Sub]x3 торрент без регистрации

Статистика раздачи
Размер:  6,49 GB   |    Скачан:  7 раз
Сидов:  1  [  0 KB/s  ]  
 
 
 
Автор Сообщение

Marsianka

[] 

Пудра / Powder


Год выхода: 1995
Жанр: фантастика, драма
Страна: США
Продолжительность: 01:51:51
Перевод: Профессиональный двухголосый, авторский одноголосый
Режиссер: Виктор Сальва
В ролях: Шон Патрик Флэнери, Мэри Стинберген, Лэнс Хенриксен, Джефф Голдблюм, Брэндон Смит, Брэдфорд Татум, Сьюзен Тиррел, Мисси Крайдер, Рэй Уайз, Эстебан Пауэлл

О фильме: «Пудра» — это странное прозвище ученики дают своему новому однокласснику Джереми. Сверстники пугаются его необычной внешности, мертвенно — бледной кожи, испепеляющего взгляда, проникающего в самое сердце собеседника. Но вскоре они понимают, что Пудра обладает сверхъестественными способностями, и за белым холодом его лица бушует пламя невероятной энергии. Так кто же он — ошибка природы или ее венец, новая ступень человеческой эволюции? Есть тайны, перед которыми наука бессильна.



Кодек: х264
Качество: WEB-DLRip 720p
Видео: MPEG-4 AVC, 6450 Кбит/с, 1280x720, 23.976 fps
Аудио 1: Русский, AC-3, 48.0 KHz, 6ch, 448 Кбит/с, Профессиональный двухголосый (НТВ+)
Аудио 2: Русский, AC-3, 48.0 KHz, 2ch, 192 Кбит/с, Профессиональный двухголосый (VHS)
Аудио 3: Русский, AC-3, 48.0 KHz, 2ch, 192 Кбит/с, Профессиональный двухголосый (ДТВ)
Аудио 4: Русский, AC-3, 48.0 KHz, 6ch, 384 Кбит/с, Авторский одноголосый (П. Карцев)
Аудио 5: Английский, E-AC-3, 48.0 KHz, 6ch, 640 Кбит/с
Субтитры: Русские, английские, финские
Главы: Есть

x264 [info]: frame I:1011 Avg QP:16.73 size:165673
x264 [info]: frame P:31606 Avg QP:19.31 size: 76635
x264 [info]: frame B:128288 Avg QP:20.70 size: 21989

Общее
Уникальный идентификатор : 213601354023071351056305181612916089131 (0xA0B21FD7DB70484EB88ADEBF3818212B)
Полное имя : H:киноПудра 1995_WEB DLRip 720p_KORSAR.mkv
Формат : Matroska
Версия формата : Version 2
Размер файла : 6,49 Гбайт
Продолжительность : 1 ч. 51 м.
Общий поток : 8309 Кбит/сек
Дата кодирования : UTC 2018-03-03 05:25:54
Программа кодирования : mkvmerge v5.8.0 ('No Sleep / Pillow') built on Sep 2 2012 15:37:04
Библиотека кодирования : libebml v1.2.3 + libmatroska v1.3.0

Видео
Идентификатор : 1
Формат : AVC
Формат/Информация : Advanced Video Codec
Профиль формата : High@L4.1
Настройки формата : CABAC / 9 Ref Frames
Параметр CABAC формата : Да
Параметр RefFrames формата : 9 кадров
Идентификатор кодека : V_MPEG4/ISO/AVC
Продолжительность : 1 ч. 51 м.
Битрейт : 6450 Кбит/сек
Ширина : 1280 пикселей
Высота : 720 пикселей
Соотношение сторон : 16:9
Режим частоты кадров : Постоянный
Частота кадров : 23,976 (24000/1001) кадра/сек
Цветовое пространство : YUV
Субдискретизация насыщенности : 4:2:0
Битовая глубина : 8 бит
Тип развёртки : Прогрессивная
Бит/(Пиксели*Кадры) : 0.292
Размер потока : 4,91 Гбайт (76%)
Библиотека кодирования : x264 core 152 r2851kMod ba24899
Настройки программы : cabac=1 / ref=9 / deblock=1:-3:-3 / analyse=0x3:0x113 / me=umh / subme=11 / psy=1 / fade_compensate=0.00 / psy_rd=1.05:0.08 / mixed_ref=1 / me_range=48 / chroma_me=1 / trellis=2 / 8x8dct=1 / cqm=0 / deadzone=21,11 / fast_pskip=0 / chroma_qp_offset=-3 / threads=12 / lookahead_threads=3 / sliced_threads=0 / nr=0 / decimate=0 / interlaced=0 / bluray_compat=0 / constrained_intra=0 / bframes=15 / b_pyramid=2 / b_adapt=2 / b_bias=0 / direct=3 / weightb=1 / open_gop=0 / weightp=2 / keyint=240 / keyint_min=23 / scenecut=40 / intra_refresh=0 / rc_lookahead=40 / rc=2pass / mbtree=0 / bitrate=6450 / ratetol=1.0 / qcomp=0.60 / qpmin=0 / qpmax=39 / qpstep=4 / cplxblur=20.0 / qblur=0.5 / vbv_maxrate=50000 / vbv_bufsize=62500 / nal_hrd=none / filler=0 / ip_ratio=1.25 / pb_ratio=1.30 / aq=1:1.00
Язык : English
Default : Да
Forced : Нет
Цветовой диапазон : Limited
Основные цвета : BT.709
Характеристики трансфера : BT.709
Коэффициенты матрицы : BT.709

Аудио #1
Идентификатор : 2
Формат : AC-3
Формат/Информация : Audio Coding 3
Параметр Endianness формата : Big
Идентификатор кодека : A_AC3
Продолжительность : 1 ч. 51 м.
Вид битрейта : Постоянный
Битрейт : 448 Кбит/сек
Каналы : 6 каналов
Расположение каналов : Front: L C R, Side: L R, LFE
Частота : 48,0 КГц
Частота кадров : 31,250 кадров/сек (1536 SPF)
Битовая глубина : 16 бит
Метод сжатия : С потерями
Размер потока : 358 Мбайт (5%)
Заголовок : DVO | НТВ+
Язык : Russian
Default : Да
Forced : Нет

Аудио #2
Идентификатор : 3
Формат : AC-3
Формат/Информация : Audio Coding 3
Параметр Endianness формата : Big
Идентификатор кодека : A_AC3
Продолжительность : 1 ч. 51 м.
Вид битрейта : Постоянный
Битрейт : 192 Кбит/сек
Каналы : 2 канала
Расположение каналов : Front: L R
Частота : 48,0 КГц
Частота кадров : 31,250 кадров/сек (1536 SPF)
Битовая глубина : 16 бит
Метод сжатия : С потерями
Размер потока : 154 Мбайт (2%)
Заголовок : DVO | VHS
Язык : Russian
Default : Нет
Forced : Нет

Аудио #3
Идентификатор : 4
Формат : AC-3
Формат/Информация : Audio Coding 3
Параметр Endianness формата : Big
Идентификатор кодека : A_AC3
Продолжительность : 1 ч. 51 м.
Вид битрейта : Постоянный
Битрейт : 192 Кбит/сек
Каналы : 2 канала
Расположение каналов : Front: L R
Частота : 48,0 КГц
Частота кадров : 31,250 кадров/сек (1536 SPF)
Битовая глубина : 16 бит
Метод сжатия : С потерями
Размер потока : 154 Мбайт (2%)
Заголовок : DVO | ДТВ
Язык : Russian
Default : Нет
Forced : Нет

Аудио #4
Идентификатор : 5
Формат : AC-3
Формат/Информация : Audio Coding 3
Параметр Endianness формата : Big
Идентификатор кодека : A_AC3
Продолжительность : 1 ч. 51 м.
Вид битрейта : Постоянный
Битрейт : 384 Кбит/сек
Каналы : 6 каналов
Расположение каналов : Front: L C R, Side: L R, LFE
Частота : 48,0 КГц
Частота кадров : 31,250 кадров/сек (1536 SPF)
Битовая глубина : 16 бит
Метод сжатия : С потерями
Размер потока : 307 Мбайт (5%)
Заголовок : AVO | П. Карцев
Язык : Russian
Default : Нет
Forced : Нет

Аудио #5
Идентификатор : 6
Формат : E-AC-3
Формат/Информация : Enhanced Audio Coding 3
Параметр Endianness формата : Big
Идентификатор кодека : A_EAC3
Продолжительность : 1 ч. 51 м.
Вид битрейта : Постоянный
Битрейт : 640 Кбит/сек
Каналы : 6 каналов
Расположение каналов : Front: L C R, Side: L R, LFE
Частота : 48,0 КГц
Частота кадров : 187,500 кадров/сек (256 SPF)
Метод сжатия : С потерями
Размер потока : 512 Мбайт (8%)
Заголовок : Original
Язык : English
Default : Нет
Forced : Нет

Текст #1
Идентификатор : 7
Формат : UTF-8
Идентификатор кодека : S_TEXT/UTF8
Идентификатор кодека/Информация : UTF-8 Plain Text
Язык : Russian
Default : Нет
Forced : Нет

Текст #2
Идентификатор : 8
Формат : UTF-8
Идентификатор кодека : S_TEXT/UTF8
Идентификатор кодека/Информация : UTF-8 Plain Text
Язык : English
Default : Нет
Forced : Нет

Текст #3
Идентификатор : 9
Формат : UTF-8
Идентификатор кодека : S_TEXT/UTF8
Идентификатор кодека/Информация : UTF-8 Plain Text
Заголовок : SDH
Язык : English
Default : Нет
Forced : Нет

Текст #4
Идентификатор : 10
Формат : UTF-8
Идентификатор кодека : S_TEXT/UTF8
Идентификатор кодека/Информация : UTF-8 Plain Text
Язык : Finnish
Default : Нет
Forced : Нет

Меню
00:00:00.000 : en:Program Start
00:01:03.296 : en:Opening Credits
00:02:18.296 : en:Bad News
00:13:01.296 : en:Vast Knowledge
00:23:28.296 : en:Magnetic Force
00:37:45.296 : en:Science Class
00:44:40.296 : en:State Board of Education
00:56:01.296 : en:Hunting Isn't a Sport
00:59:21.296 : en:The Power Of Anger
01:04:26.296 : en:A Friend
01:10:13.296 : en:Changed Man
01:13:43.296 : en:Emma
01:21:49.296 : en:Meeting Of Minds
01:31:55.296 : en:Bullies
01:45:19.296 : en:The Right Thing
01:47:23.296 : en:End Credits



Скачать Пудра.Powder.(Виктор.Сальва).[1995.фантастика.драма.WEB-DLRip].[720p].[DVO]x3+[AVO]+[Eng]+[Sub]x3.torrent без регистрации
Золото ЗОЛОТАЯ РАЗДАЧА! СКАЧАННОЕ НЕ ЗАСЧИТЫВАЕТСЯ! Золото
Дата: Зарегистрирован   [ Тип: внутренний ] Как тут cкачать?
MAGNET ссылка
MAGNET ссылка


Скачать .torrent

33 KB

Статус: проверено DHT
Скачан: торрент - 7 раз, раздача полностью - 1 раз
Размер: 6,49 GB
Оценка:  - (Голосов: 0)
Поблагодарили: 0
Поделиться ссылкой на эту раздачу с друзьями:
В контактеFacebookОдноклассникиTwitterLivejournalМой МирLiveinternet
 

 
Показать сообщения:    


Вы не можете начинать темы
Вы не можете отвечать на сообщения
Вы не можете редактировать свои сообщения
Вы не можете удалять свои сообщения
Вы не можете голосовать в опросах
Вы не можете прикреплять файлы к сообщениям
Вы можете скачивать файлы