Loading...
Error

Скачать Киллер / Kiler (Юлиуш Махульски) [1997, комедия, DVDRip-AVC] [MVO]+[AVO]+[Оригинал]+[Sub Eng] торрент без регистрации

Статистика раздачи
Размер:  2,44 GB   |    Скачан:  11 раз
Сидов:  1  [  0 KB/s  ]  
 
 
 
Автор Сообщение

Marsianka

[] 

Киллер / Kiler

Страна: Польша
Жанр: комедия
Год выпуска: 1997
Продолжительность: 01:43:31
Перевод: Профессиональный многоголосый, авторский одноголосый
Режиссер: Юлиуш Махульски / Juliusz Machulski
В ролях: Цезари Пазура, Малгожата Кожуховска, Ежи Штур, Януш Ревиньски, Катажина Фигура, Ян Энглерт, Марек Кондрат, Ян Махульски, Шимон Маевски.

Описание: Обычного таксиста Ежи Килера ошибочно принимают за профессионального убийцу с международной известностью по прозвищу "Киллер".
Оказавшись в тюрьме, он неожиданно для себя встречает уважение и восхищение окружающих: сокамерников, полицейских и охранников.
Позже гангстеры освобождают Ежи из тюрьмы и ему начинает нравиться новая жизнь, несравнимая с прежней жизнью неудачника…



Кодек: х264
Качество: DVDRip-AVC
Видео: MPEG-4 AVC, 712х484@760x484, 25 fps, 2600 Кбит/с
Аудио 1: Русский, АС3, 2h, 192 Кбит/с - MVO, к/ст. им. Горького
Аудио 2: Русский, АС3, 2h, 128 Кбит/с - AVO, Павел Санаев
Аудио 3: Польский, АС3, 6h, 448 Кбит/с - Оригинал
Субтитры: Английские
Навигация по главам: Есть

x264 [info]: frame I:1007 Avg QP:17.28 size: 60946
x264 [info]: frame P:32396 Avg QP:19.99 size: 27337
x264 [info]: frame B:121891 Avg QP:21.69 size: 8793

Общее
Уникальный идентификатор : 245959747647407018240708569570700347715 (0xB90A1FD2D5423EB2BD503FA3DC3EC943)
Полное имя : Киллер 1997_DVDRip_AVC_KORSAR.mkv
Формат : Matroska
Версия формата : Version 2
Размер файла : 2,44 Гбайт
Продолжительность : 1 ч. 43 м.
Общий поток : 3370 Кбит/сек
Дата кодирования : UTC 2018-02-21 19:15:16
Программа кодирования : mkvmerge v5.8.0 ('No Sleep / Pillow') built on Sep 2 2012 15:37:04
Библиотека кодирования : libebml v1.2.3 + libmatroska v1.3.0

Видео
Идентификатор : 1
Формат : AVC
Формат/Информация : Advanced Video Codec
Профиль формата : High@L4.1
Параметр CABAC формата : Да
Параметр RefFrames формата : 15 кадров
Идентификатор кодека : V_MPEG4/ISO/AVC
Продолжительность : 1 ч. 43 м.
Битрейт : 2600 Кбит/сек
Ширина : 712 пикселей
Высота : 484 пикселя
Соотношение сторон : 16:10
Соотношение сторон в оригинале : 16:10
Режим частоты кадров : Постоянный
Частота кадров : 25,000 кадров/сек
Цветовое пространство : YUV
Субдискретизация насыщенности : 4:2:0
Битовая глубина : 8 бит
Тип развёртки : Прогрессивная
Бит/(Пиксели*Кадры) : 0.302
Размер потока : 1,83 Гбайт (75%)
Библиотека кодирования : x264 core 152 r2851kMod ba24899
Настройки программы : cabac=1 / ref=15 / deblock=1:-2:-2 / analyse=0x3:0x133 / me=umh / subme=11 / psy=1 / fade_compensate=0.00 / psy_rd=1.05:0.10 / mixed_ref=1 / me_range=48 / chroma_me=1 / trellis=2 / 8x8dct=1 / cqm=0 / deadzone=21,11 / fast_pskip=0 / chroma_qp_offset=-3 / threads=12 / lookahead_threads=3 / sliced_threads=0 / nr=0 / decimate=0 / interlaced=0 / bluray_compat=0 / constrained_intra=0 / bframes=14 / b_pyramid=2 / b_adapt=2 / b_bias=0 / direct=3 / weightb=1 / open_gop=0 / weightp=2 / keyint=250 / keyint_min=25 / scenecut=40 / intra_refresh=0 / rc_lookahead=40 / rc=2pass / mbtree=0 / bitrate=2600 / ratetol=1.0 / qcomp=0.60 / qpmin=0 / qpmax=39 / qpstep=4 / cplxblur=20.0 / qblur=0.5 / vbv_maxrate=50000 / vbv_bufsize=62500 / nal_hrd=none / filler=0 / ip_ratio=1.25 / pb_ratio=1.30 / aq=1:1.00
Язык : Polish
Default : Да
Forced : Нет
Цветовой диапазон : Limited
Основные цвета : BT.601 PAL
Характеристики трансфера : BT.470 System B, BT.470 System G
Коэффициенты матрицы : BT.601

Аудио #1
Идентификатор : 2
Формат : AC-3
Формат/Информация : Audio Coding 3
Параметр Endianness формата : Big
Идентификатор кодека : A_AC3
Продолжительность : 1 ч. 43 м.
Вид битрейта : Постоянный
Битрейт : 192 Кбит/сек
Каналы : 2 канала
Расположение каналов : Front: L R
Частота : 48,0 КГц
Частота кадров : 31,250 кадров/сек (1536 SPF)
Битовая глубина : 16 бит
Метод сжатия : С потерями
Размер потока : 142 Мбайт (6%)
Заголовок : Профессиональный (многоголосый) - к/ст. им. Горького
Язык : Russian
Default : Да
Forced : Нет

Аудио #2
Идентификатор : 3
Формат : AC-3
Формат/Информация : Audio Coding 3
Параметр Endianness формата : Big
Идентификатор кодека : A_AC3
Продолжительность : 1 ч. 43 м.
Вид битрейта : Постоянный
Битрейт : 128 Кбит/сек
Каналы : 2 канала
Расположение каналов : Front: L R
Частота : 48,0 КГц
Частота кадров : 31,250 кадров/сек (1536 SPF)
Битовая глубина : 16 бит
Метод сжатия : С потерями
Задержка видео : 90 мс.
Размер потока : 94,8 Мбайт (4%)
Заголовок : Авторский (одноголосый) - Павел Санаев
Язык : Russian
Default : Нет
Forced : Нет

Аудио #3
Идентификатор : 4
Формат : AC-3
Формат/Информация : Audio Coding 3
Параметр Endianness формата : Big
Идентификатор кодека : A_AC3
Продолжительность : 1 ч. 43 м.
Вид битрейта : Постоянный
Битрейт : 448 Кбит/сек
Каналы : 5 каналов
Расположение каналов : Front: L C R, Side: L R
Частота : 48,0 КГц
Частота кадров : 31,250 кадров/сек (1536 SPF)
Битовая глубина : 16 бит
Метод сжатия : С потерями
Задержка видео : 90 мс.
Размер потока : 332 Мбайт (13%)
Заголовок : Original
Язык : Polish
Default : Нет
Forced : Нет

Текст
Идентификатор : 5
Формат : UTF-8
Идентификатор кодека : S_TEXT/UTF8
Идентификатор кодека/Информация : UTF-8 Plain Text
Язык : English
Default : Нет
Forced : Нет

Меню
00:00:00.000 : en:Chapter 1
00:03:13.680 : en:Chapter 2
00:05:47.160 : en:Chapter 3
00:13:07.800 : en:Chapter 4
00:21:49.320 : en:Chapter 5
00:35:58.800 : en:Chapter 6
00:40:28.920 : en:Chapter 7
00:42:23.520 : en:Chapter 8
00:47:09.600 : en:Chapter 9
00:50:51.960 : en:Chapter 10
00:54:45.720 : en:Chapter 11
01:00:26.640 : en:Chapter 12
01:01:33.480 : en:Chapter 13
01:04:05.880 : en:Chapter 14
01:06:29.040 : en:Chapter 15
01:11:11.880 : en:Chapter 16
01:13:30.480 : en:Chapter 17
01:16:44.280 : en:Chapter 18
01:20:46.680 : en:Chapter 19
01:27:36.360 : en:Chapter 20
01:29:08.640 : en:Chapter 21
01:33:10.080 : en:Chapter 22
01:35:51.600 : en:Chapter 23
01:37:04.320 : en:Chapter 24



Скачать Киллер.Kiler.(Юлиуш.Махульски).[1997.комедия.DVDRip-AVC].[MVO]+[AVO]+[Оригинал]+[Sub.Eng].torrent без регистрации
Золото ЗОЛОТАЯ РАЗДАЧА! СКАЧАННОЕ НЕ ЗАСЧИТЫВАЕТСЯ! Золото
Дата: Зарегистрирован   [ Тип: внутренний ] Как тут cкачать?
MAGNET ссылка
MAGNET ссылка


Скачать .torrent

13 KB

Статус: проверено DHT
Скачан: торрент - 11 раз, раздача полностью - 6 раз
Размер: 2,44 GB
Оценка:  - (Голосов: 0)
Поблагодарили: 0
Поделиться ссылкой на эту раздачу с друзьями:
В контактеFacebookОдноклассникиTwitterLivejournalМой МирLiveinternet
 

 
Показать сообщения:    


Вы не можете начинать темы
Вы не можете отвечать на сообщения
Вы не можете редактировать свои сообщения
Вы не можете удалять свои сообщения
Вы не можете голосовать в опросах
Вы не можете прикреплять файлы к сообщениям
Вы можете скачивать файлы