Loading...
Error

Скачать Мотылек / Papillon (Франклин Дж. Шаффнер) [1973, драма, криминал, биография, BDRip] [720p] [MVO]x2+[DVO]+[AVO]x3+[Eng]+[Sub Rus, Eng]x2 торрент без регистрации

Статистика раздачи
Размер:  12,19 GB   |    Скачан:  11 раз
Сидов:  6  [  0 KB/s  ]  
 
 
 
Автор Сообщение

Marsianka

[] 

Мотылек / Papillon


Страна: Франция, США
Жанр: драма, криминал, биография
Год выпуска: 1973
Продолжительность: 02:30:47
Перевод: Профессиональный (многоголосый, закадровый), Профессиональный (двухголосый, закадровый), Авторский
Режиссер: Франклин Дж. Шаффнер
В ролях: Стив МакКуин, Дастин Хоффман, Виктор Джори, Дон Гордон, Энтони Цербе, Роберт Димен, Вудроу Парфри, Билл Муми, Джордж Кулурис, Рэтна Ассан, Уильям Смитерс, Вэл Эйвери

Описание: За убийство, которое он не совершал, взломщик сейфов Анри Шарьер приговорен к пожизненному заключению и отправлен на каторгу. Прозванный «Мотыльком» из-за того, что на его груди вытатуирован этот символ свободы, Анри совершает несколько попыток побега. В наказание власти надолго сажают его в карцер, а затем отправляют во Французскую Гвиану на остров Дьявола, со всех сторон окруженный океаном.
Из этой самой страшной каторжной тюрьмы не удавалось бежать ни одному заключенному. Но ничто не может заставить Анри пасть духом и сломить его решимость вырваться на волю…



Кодек: х264
Качество: BDRip 720p
Видео: MPEG-4 AVC, 1276х532, 23,976 fps, 9200 Кбит/с
Аудио 1: Русский: 48 kHz, AC3, 2ch, 192 Кбит/с Многоголосый закадровый, OPT
Аудио 2: Русский: 48 kHz, AC3, 2ch, 192 Кбит/с Многоголосый закадровый, DVD Магия
Аудио 3: Русский: 48 kHz, AC3, 6ch, 448 Кбит/с Двухголосый закадровый, П.Гланц и И.Королёва
Аудио 4: Русский: 48 kHz, AC3, 6ch, 448 Кбит/с Авторский, А.Гаврилов
Аудио 5: Русский: 48 kHz, AC3, 6ch, 448 Кбит/с Авторский, М.Иванов
Аудио 6: Русский: 48 kHz, AC3, 2ch, 192 Кбит/с Авторский, Ю.Товбин
Аудио 7: Английкий: 48 kHz, AC3, 6ch, 448 Кбит/с
Субтитры: Русские, Английские
Главы: Есть

x264 [info]: frame I:1456 Avg QP:19.16 size:155537
x264 [info]: frame P:43985 Avg QP:21.43 size: 84573
x264 [info]: frame B:171472 Avg QP:23.12 size: 37659

Общее
Уникальный идентификатор : 246250533513782358457485093474829832570 (0xB94220AC76205C97A062A127155B917A)
Полное имя : H:киноМотылек 1973_BDRip 720p_KORSAR.mkv
Формат : Matroska
Версия формата : Version 2
Размер файла : 12,2 Гбайт
Продолжительность : 2 ч. 30 м.
Общий поток : 11,6 Мбит/сек
Название фильма : Мотылек_1973
Дата кодирования : UTC 2018-02-12 10:18:46
Программа кодирования : mkvmerge v5.8.0 ('No Sleep / Pillow') built on Sep 2 2012 15:37:04
Библиотека кодирования : libebml v1.2.3 + libmatroska v1.3.0

Видео
Идентификатор : 1
Формат : AVC
Формат/Информация : Advanced Video Codec
Профиль формата : High@L4.1
Настройки формата : CABAC / 12 Ref Frames
Параметр CABAC формата : Да
Параметр RefFrames формата : 12 кадров
Идентификатор кодека : V_MPEG4/ISO/AVC
Продолжительность : 2 ч. 30 м.
Битрейт : 9200 Кбит/сек
Ширина : 1276 пикселей
Высота : 532 пикселя
Соотношение сторон : 2,40:1
Режим частоты кадров : Постоянный
Частота кадров : 23,976 (24000/1001) кадра/сек
Цветовое пространство : YUV
Субдискретизация насыщенности : 4:2:0
Битовая глубина : 8 бит
Тип развёртки : Прогрессивная
Бит/(Пиксели*Кадры) : 0.565
Размер потока : 9,45 Гбайт (78%)
Библиотека кодирования : x264 core 152 r2851kMod ba24899
Настройки программы : cabac=1 / ref=12 / deblock=1:-2:-2 / analyse=0x3:0x113 / me=umh / subme=11 / psy=1 / fade_compensate=0.00 / psy_rd=1.03:0.10 / mixed_ref=1 / me_range=48 / chroma_me=1 / trellis=2 / 8x8dct=1 / cqm=0 / deadzone=21,11 / fast_pskip=0 / chroma_qp_offset=-3 / threads=12 / lookahead_threads=3 / sliced_threads=0 / nr=0 / decimate=0 / interlaced=0 / bluray_compat=0 / constrained_intra=0 / bframes=12 / b_pyramid=2 / b_adapt=2 / b_bias=0 / direct=3 / weightb=1 / open_gop=0 / weightp=2 / keyint=240 / keyint_min=23 / scenecut=40 / intra_refresh=0 / rc_lookahead=40 / rc=2pass / mbtree=0 / bitrate=9200 / ratetol=1.0 / qcomp=0.60 / qpmin=0 / qpmax=39 / qpstep=4 / cplxblur=20.0 / qblur=0.5 / vbv_maxrate=50000 / vbv_bufsize=62500 / nal_hrd=none / filler=0 / ip_ratio=1.25 / pb_ratio=1.30 / aq=1:1.00
Язык : English
Default : Да
Forced : Нет
Цветовой диапазон : Limited
Основные цвета : BT.709
Характеристики трансфера : BT.709
Коэффициенты матрицы : BT.709

Аудио #1
Идентификатор : 2
Формат : AC-3
Формат/Информация : Audio Coding 3
Параметр Endianness формата : Big
Идентификатор кодека : A_AC3
Продолжительность : 2 ч. 30 м.
Вид битрейта : Постоянный
Битрейт : 192 Кбит/сек
Каналы : 2 канала
Расположение каналов : Front: L R
Частота : 48,0 КГц
Частота кадров : 31,250 кадров/сек (1536 SPF)
Битовая глубина : 16 бит
Метод сжатия : С потерями
Размер потока : 207 Мбайт (2%)
Заголовок : MVO.OPT
Язык : Russian
Default : Да
Forced : Нет

Аудио #2
Идентификатор : 3
Формат : AC-3
Формат/Информация : Audio Coding 3
Параметр Endianness формата : Big
Идентификатор кодека : A_AC3
Продолжительность : 2 ч. 30 м.
Вид битрейта : Постоянный
Битрейт : 192 Кбит/сек
Каналы : 2 канала
Расположение каналов : Front: L R
Частота : 48,0 КГц
Частота кадров : 31,250 кадров/сек (1536 SPF)
Битовая глубина : 16 бит
Метод сжатия : С потерями
Размер потока : 207 Мбайт (2%)
Заголовок : MVO.DVD Magic
Язык : Russian
Default : Нет
Forced : Нет

Аудио #3
Идентификатор : 4
Формат : AC-3
Формат/Информация : Audio Coding 3
Параметр Endianness формата : Big
Идентификатор кодека : A_AC3
Продолжительность : 2 ч. 30 м.
Вид битрейта : Постоянный
Битрейт : 448 Кбит/сек
Каналы : 6 каналов
Расположение каналов : Front: L C R, Side: L R, LFE
Частота : 48,0 КГц
Частота кадров : 31,250 кадров/сек (1536 SPF)
Битовая глубина : 16 бит
Метод сжатия : С потерями
Размер потока : 483 Мбайт (4%)
Заголовок : Пётр Гланц и Инна Королёва
Язык : Russian
Default : Нет
Forced : Нет

Аудио #4
Идентификатор : 5
Формат : AC-3
Формат/Информация : Audio Coding 3
Параметр Endianness формата : Big
Идентификатор кодека : A_AC3
Продолжительность : 2 ч. 30 м.
Вид битрейта : Постоянный
Битрейт : 448 Кбит/сек
Каналы : 6 каналов
Расположение каналов : Front: L C R, Side: L R, LFE
Частота : 48,0 КГц
Частота кадров : 31,250 кадров/сек (1536 SPF)
Битовая глубина : 16 бит
Метод сжатия : С потерями
Размер потока : 483 Мбайт (4%)
Заголовок : Андрей Гаврилов
Язык : Russian
Default : Нет
Forced : Нет

Аудио #5
Идентификатор : 6
Формат : AC-3
Формат/Информация : Audio Coding 3
Параметр Endianness формата : Big
Идентификатор кодека : A_AC3
Продолжительность : 2 ч. 30 м.
Вид битрейта : Постоянный
Битрейт : 448 Кбит/сек
Каналы : 6 каналов
Расположение каналов : Front: L C R, Side: L R, LFE
Частота : 48,0 КГц
Частота кадров : 31,250 кадров/сек (1536 SPF)
Битовая глубина : 16 бит
Метод сжатия : С потерями
Размер потока : 483 Мбайт (4%)
Заголовок : Михаил Иванов
Язык : Russian
Default : Нет
Forced : Нет

Аудио #6
Идентификатор : 7
Формат : AC-3
Формат/Информация : Audio Coding 3
Параметр Endianness формата : Big
Идентификатор кодека : A_AC3
Продолжительность : 2 ч. 30 м.
Вид битрейта : Постоянный
Битрейт : 192 Кбит/сек
Каналы : 2 канала
Расположение каналов : Front: L R
Частота : 48,0 КГц
Частота кадров : 31,250 кадров/сек (1536 SPF)
Битовая глубина : 16 бит
Метод сжатия : С потерями
Размер потока : 207 Мбайт (2%)
Заголовок : Юрий Товбин
Язык : Russian
Default : Нет
Forced : Нет

Аудио #7
Идентификатор : 8
Формат : AC-3
Формат/Информация : Audio Coding 3
Параметр Endianness формата : Big
Идентификатор кодека : A_AC3
Продолжительность : 2 ч. 30 м.
Вид битрейта : Постоянный
Битрейт : 448 Кбит/сек
Каналы : 6 каналов
Расположение каналов : Front: L C R, Side: L R, LFE
Частота : 48,0 КГц
Частота кадров : 31,250 кадров/сек (1536 SPF)
Битовая глубина : 16 бит
Метод сжатия : С потерями
Размер потока : 483 Мбайт (4%)
Заголовок : original
Язык : English
Default : Нет
Forced : Нет

Текст #1
Идентификатор : 9
Формат : UTF-8
Идентификатор кодека : S_TEXT/UTF8
Идентификатор кодека/Информация : UTF-8 Plain Text
Заголовок : русские (на места без перевода)
Язык : Russian
Default : Да
Forced : Да

Текст #2
Идентификатор : 10
Формат : UTF-8
Идентификатор кодека : S_TEXT/UTF8
Идентификатор кодека/Информация : UTF-8 Plain Text
Заголовок : русские
Язык : Russian
Default : Нет
Forced : Нет

Текст #3
Идентификатор : 11
Формат : UTF-8
Идентификатор кодека : S_TEXT/UTF8
Идентификатор кодека/Информация : UTF-8 Plain Text
Заголовок : английские
Язык : English
Default : Нет
Forced : Нет

Меню
00:00:00.000 : en:00:00:00.000
00:03:58.321 : en:00:03:58.321
00:08:21.083 : en:00:08:21.083
00:10:31.380 : en:00:10:31.380
00:15:24.006 : en:00:15:24.006
00:16:58.642 : en:00:16:58.642
00:22:14.541 : en:00:22:14.541
00:25:40.413 : en:00:25:40.413
00:30:16.815 : en:00:30:16.815
00:35:01.933 : en:00:35:01.933
00:40:35.850 : en:00:40:35.850
00:43:53.005 : en:00:43:53.005
00:45:50.456 : en:00:45:50.456
00:51:21.953 : en:00:51:21.953
00:56:38.561 : en:00:56:38.561
00:58:26.377 : en:00:58:26.377
01:07:21.954 : en:01:07:21.954
01:09:26.662 : en:01:09:26.662
01:12:26.759 : en:01:12:26.759
01:17:45.911 : en:01:17:45.911
01:21:02.691 : en:01:21:02.691
01:24:08.334 : en:01:24:08.334
01:26:05.535 : en:01:26:05.535
01:32:59.991 : en:01:32:59.991
01:35:57.418 : en:01:35:57.418
01:37:55.953 : en:01:37:55.953
01:42:36.358 : en:01:42:36.358
01:44:18.627 : en:01:44:18.627
01:47:37.200 : en:01:47:37.200
01:51:02.238 : en:01:51:02.238
01:54:34.742 : en:01:54:34.742
02:02:55.910 : en:02:02:55.910
02:07:06.827 : en:02:07:06.827
02:10:31.990 : en:02:10:31.990
02:14:08.623 : en:02:14:08.623
02:16:37.147 : en:02:16:37.147
02:20:06.523 : en:02:20:06.523
02:24:07.472 : en:02:24:07.472
02:27:12.990 : en:02:27:12.990





Скачать Мотылек.Papillon.(Франклин.Дж.Шаффнер).[1973.драма.криминал.биография.BDRip].[720p].[MVO]x2+[DVO]+[AVO]x3+[Eng]+[Sub.Rus.Eng]x2.torrent без регистрации
Золото ЗОЛОТАЯ РАЗДАЧА! СКАЧАННОЕ НЕ ЗАСЧИТЫВАЕТСЯ! Золото
Дата: Зарегистрирован   [ Тип: внешний ] Как тут cкачать?
MAGNET ссылка
MAGNET ссылка


Скачать .torrent

62 KB

Статус: проверено DHT
Скачан: торрент - 11 раз, раздача полностью - 1 раз
Размер: 12,19 GB
Оценка:  - (Голосов: 0)
Поблагодарили: 1
Поделиться ссылкой на эту раздачу с друзьями:
В контактеFacebookОдноклассникиTwitterLivejournalМой МирLiveinternet
 

 
Показать сообщения:    


Вы не можете начинать темы
Вы не можете отвечать на сообщения
Вы не можете редактировать свои сообщения
Вы не можете удалять свои сообщения
Вы не можете голосовать в опросах
Вы не можете прикреплять файлы к сообщениям
Вы можете скачивать файлы