Loading...
Error

Скачать Одиссея капитана Блада (Андрей Праченко) [1991, приключения, DVDRip-AVC] торрент без регистрации

Статистика раздачи
Размер:  4,88 GB   |    Скачан:  22 раза
Сидов:  5  [  0 KB/s  ]   Личеров:  23  [  0 KB/s  ]  
 
 
 
Автор Сообщение

Marsianka

[] 

Одиссея капитана Блада


Год выпуска: 1991
Жанр: приключения
Выпущено: СССР, Франция
Продолжительность: 01:03:03+01:13:04
Перевод: не требуется
Режиссер: Андрей Праченко
В ролях: Ив Ламбрехт, Валери Жанне, Леонид Ярмольник, Альберт Филозов,
Миндаугас Цапас, Виктор Демерташ,
Георгий Дворников, Рамзес Джабраилов,
Александр Пашутин, Павел Ремезов

О фильме: XVII век. Английский лекарь по имени Питер Блад, случайно оказавшийся среди бунтовщиков,
был сослан на остров Барбадос на каторжные работы.
Спустя некоторое время ему и его товарищам по несчастью удаётся бежать, захватив испанский фрегат.
Волею обстоятельств капитан Блад и его матросы вынуждены поднять чёрный пиратский флаг.
Через некоторое время капитан Блад и его команда становятся самыми известным пиратами в регионе.
На них объявляется настоящая охота, однако, удача каждый раз оказывается на стороне благородного разбойника…
Остросюжетный приключенческий фильм по мотивам одноименного популярного романа Рафаэля Сабатини.
Великолепные батальные сцены морских пиратских сражений, дуэли во дворцах и на улицах, борьба мужественного и красивого человека,
вынужденного стать пиратом, за руку и сердце юной прекрасной дамы.



Кодек: х264
Качество: DVDRip-AVC
Видео: MPEG-4 AVC, 692x568@738x568, 25 fps, 4750 Кбит/с
Звук: AC3, 6 ch, 384 Кбит/с
Главы: Есть

x264 [info]: frame I:680 Avg QP:18.15 size: 91534
x264 [info]: frame P:25079 Avg QP:20.29 size: 50044
x264 [info]: frame B:83849 Avg QP:22.19 size: 15334

Общее
Уникальный идентификатор : 171156808782993432020440171141832420384 (0x80C39A31C7D9EF2DA675962F381CAC20)
Полное имя : I:сссрОдиссея капитана Блада 1991_DVDRip-AVC_KORSARОдиссея капитана Блада 2 серия 1991_DVDRip-AVC_KORSAR.mkv
Формат : Matroska
Версия формата : Version 2
Размер файла : 2,62 Гбайт
Продолжительность : 1 ч. 13 м.
Общий поток : 5136 Кбит/сек
Дата кодирования : UTC 2018-02-18 02:28:21
Программа кодирования : mkvmerge v5.8.0 ('No Sleep / Pillow') built on Sep 2 2012 15:37:04
Библиотека кодирования : libebml v1.2.3 + libmatroska v1.3.0

Видео
Идентификатор : 1
Формат : AVC
Формат/Информация : Advanced Video Codec
Профиль формата : High@L4.1
Настройки формата : CABAC / 15 Ref Frames
Параметр CABAC формата : Да
Параметр RefFrames формата : 15 кадров
Идентификатор кодека : V_MPEG4/ISO/AVC
Продолжительность : 1 ч. 13 м.
Битрейт : 4750 Кбит/сек
Ширина : 692 пикселя
Высота : 568 пикселей
Соотношение сторон : 1,299
Соотношение сторон в оригинале : 4:3
Режим частоты кадров : Постоянный
Частота кадров : 25,000 кадров/сек
Цветовое пространство : YUV
Субдискретизация насыщенности : 4:2:0
Битовая глубина : 8 бит
Тип развёртки : Прогрессивная
Бит/(Пиксели*Кадры) : 0.483
Размер потока : 2,37 Гбайт (91%)
Библиотека кодирования : x264 core 152 r2851kMod ba24899
Настройки программы : cabac=1 / ref=15 / deblock=1:-2:-1 / analyse=0x3:0x133 / me=umh / subme=11 / psy=1 / fade_compensate=0.00 / psy_rd=1.05:0.10 / mixed_ref=1 / me_range=48 / chroma_me=1 / trellis=2 / 8x8dct=1 / cqm=0 / deadzone=21,11 / fast_pskip=0 / chroma_qp_offset=-3 / threads=12 / lookahead_threads=2 / sliced_threads=0 / nr=0 / decimate=0 / interlaced=0 / bluray_compat=0 / constrained_intra=0 / bframes=8 / b_pyramid=2 / b_adapt=2 / b_bias=0 / direct=3 / weightb=1 / open_gop=0 / weightp=2 / keyint=250 / keyint_min=25 / scenecut=40 / intra_refresh=0 / rc_lookahead=40 / rc=2pass / mbtree=0 / bitrate=4750 / ratetol=1.0 / qcomp=0.60 / qpmin=0 / qpmax=39 / qpstep=4 / cplxblur=20.0 / qblur=0.5 / vbv_maxrate=50000 / vbv_bufsize=62500 / nal_hrd=none / filler=0 / ip_ratio=1.25 / pb_ratio=1.30 / aq=1:1.00
Язык : English
Default : Да
Forced : Нет
Цветовой диапазон : Limited
Основные цвета : BT.601 PAL
Характеристики трансфера : BT.470 System B, BT.470 System G
Коэффициенты матрицы : BT.470 System B, BT.470 System G

Аудио
Идентификатор : 2
Формат : AC-3
Формат/Информация : Audio Coding 3
Параметр Endianness формата : Big
Идентификатор кодека : A_AC3
Продолжительность : 1 ч. 13 м.
Вид битрейта : Постоянный
Битрейт : 384 Кбит/сек
Каналы : 6 каналов
Расположение каналов : Front: L C R, Side: L R, LFE
Частота : 48,0 КГц
Частота кадров : 31,250 кадров/сек (1536 SPF)
Битовая глубина : 16 бит
Метод сжатия : С потерями
Размер потока : 201 Мбайт (7%)
Язык : Russian
Default : Да
Forced : Нет

Меню
00:00:00.000 : en:Chapter 1
00:09:33.120 : en:Chapter 2
00:19:38.160 : en:Chapter 3
00:30:02.760 : en:Chapter 4
00:44:41.640 : en:Chapter 5
00:54:16.200 : en:Chapter 6
01:03:03.120 : en:Chapter 7



Скачать Одиссея.капитана.Блада.(Андрей.Праченко).[1991.приключения.DVDRip-AVC].torrent без регистрации
Золото ЗОЛОТАЯ РАЗДАЧА! СКАЧАННОЕ НЕ ЗАСЧИТЫВАЕТСЯ! Золото
Дата: Зарегистрирован   [ Тип: внешний ] Как тут cкачать?
MAGNET ссылка
MAGNET ссылка


Скачать .torrent

26 KB

Статус: проверено DHT
Скачан: торрент - 22 раз, раздача полностью - 19 раз
Размер: 4,88 GB
Оценка:  5 (Голосов: 1)
Поблагодарили: 2
Поделиться ссылкой на эту раздачу с друзьями:
В контактеFacebookОдноклассникиTwitterLivejournalМой МирLiveinternet
 

 
Показать сообщения:    


Вы не можете начинать темы
Вы не можете отвечать на сообщения
Вы не можете редактировать свои сообщения
Вы не можете удалять свои сообщения
Вы не можете голосовать в опросах
Вы не можете прикреплять файлы к сообщениям
Вы можете скачивать файлы