Loading...
Error

Скачать Пространство для манёвра (Игорь Шешуков) [1982, экранизация, SATRip-AVC] торрент без регистрации

Статистика раздачи
Размер:  2,17 GB   |    Скачан:  12 раз
Сидов:  6  [  0 KB/s  ]   Личеров:  1  [  0 KB/s  ]  
 
 
 
Автор Сообщение

Marsianka

[] 

Пространство для манёвра


Страна: СССР
Жанр: экранизация
Год выпуска: 1982
Продолжительность: 01:00:32 + 01:04:14
Перевод: Не требуется
Режиссёр: Игорь Шешуков
В ролях: Владимир Ерёмин, Анатолий Ромашин, Евгения Уралова, Александра Яковлева, Николай Караченцов, Галина Щепетнова, Андрей Толубеев, Николай Гринько, Олег Корчиков, Тамара Дегтярёва, Изабелла Чирина, Елена Фомченко

Описание: В конструкторское бюро приходит новый руководитель, нестандартно мыслящий, отметающий рутину.



Доп. инфо: За исходный DVB спасибо Cheef mate

Кодек: х264
Качество: SATRip-AVC
Видео: MPEG-4 AVC, 718х570@766х570, 25 fps, 2300 Кбит/с
Аудио: АС3, 2h, 192 Кбит/с

x264 [info]: frame I:533 Avg QP:16.07 size: 89077
x264 [info]: frame P:19126 Avg QP:19.81 size: 30826
x264 [info]: frame B:76690 Avg QP:21.36 size: 6142

Общее
Уникальный идентификатор : 175850808955002867065542891548943501645 (0x844BA24560A0B74E81CB9149F89AC94D)
Полное имя : E:Мои рипыПространство для маневра 1982_SATRip-AVC_KORSARПространство для маневра 1 серия 1982_SATRip-AVC_KORSAR.mkv
Формат : Matroska
Версия формата : Version 2
Размер файла : 1,05 Гбайт
Продолжительность : 1 ч. 0 м.
Общий поток : 2494 Кбит/сек
Дата кодирования : UTC 2018-03-01 15:37:19
Программа кодирования : mkvmerge v5.8.0 ('No Sleep / Pillow') built on Sep 2 2012 15:37:04
Библиотека кодирования : libebml v1.2.3 + libmatroska v1.3.0

Видео
Идентификатор : 1
Формат : AVC
Формат/Информация : Advanced Video Codec
Профиль формата : High@L4.1
Настройки формата : CABAC / 15 Ref Frames
Параметр CABAC формата : Да
Параметр RefFrames формата : 15 кадров
Идентификатор кодека : V_MPEG4/ISO/AVC
Продолжительность : 1 ч. 0 м.
Битрейт : 2300 Кбит/сек
Ширина : 718 пикселей
Высота : 570 пикселей
Соотношение сторон : 4:3
Соотношение сторон в оригинале : 4:3
Режим частоты кадров : Постоянный
Частота кадров : 25,000 кадров/сек
Цветовое пространство : YUV
Субдискретизация насыщенности : 4:2:0
Битовая глубина : 8 бит
Тип развёртки : Прогрессивная
Бит/(Пиксели*Кадры) : 0.225
Размер потока : 975 Мбайт (90%)
Библиотека кодирования : x264 core 152 r2851kMod ba24899
Настройки программы : cabac=1 / ref=15 / deblock=1:-2:-1 / analyse=0x3:0x133 / me=umh / subme=11 / psy=1 / fade_compensate=0.00 / psy_rd=1.05:0.10 / mixed_ref=1 / me_range=48 / chroma_me=1 / trellis=2 / 8x8dct=1 / cqm=0 / deadzone=21,11 / fast_pskip=0 / chroma_qp_offset=-3 / threads=12 / lookahead_threads=2 / sliced_threads=0 / nr=0 / decimate=0 / interlaced=0 / bluray_compat=0 / constrained_intra=0 / bframes=9 / b_pyramid=2 / b_adapt=2 / b_bias=0 / direct=3 / weightb=1 / open_gop=0 / weightp=2 / keyint=250 / keyint_min=25 / scenecut=40 / intra_refresh=0 / rc_lookahead=40 / rc=2pass / mbtree=0 / bitrate=2300 / ratetol=1.0 / qcomp=0.60 / qpmin=0 / qpmax=39 / qpstep=4 / cplxblur=20.0 / qblur=0.5 / vbv_maxrate=50000 / vbv_bufsize=62500 / nal_hrd=none / filler=0 / ip_ratio=1.40 / pb_ratio=1.30 / aq=1:1.00
Язык : English
Default : Да
Forced : Нет
Цветовой диапазон : Limited
Основные цвета : BT.601 PAL
Характеристики трансфера : BT.470 System B, BT.470 System G
Коэффициенты матрицы : BT.470 System B, BT.470 System G

Аудио
Идентификатор : 2
Формат : AC-3
Формат/Информация : Audio Coding 3
Параметр Endianness формата : Big
Идентификатор кодека : A_AC3
Продолжительность : 1 ч. 0 м.
Вид битрейта : Постоянный
Битрейт : 192 Кбит/сек
Каналы : 2 канала
Расположение каналов : Front: L R
Частота : 48,0 КГц
Частота кадров : 31,250 кадров/сек (1536 SPF)
Битовая глубина : 16 бит
Метод сжатия : С потерями
Размер потока : 83,1 Мбайт (8%)
Default : Да
Forced : Нет



Скачать Пространство.для.манёвра.(Игорь.Шешуков).[1982.экранизация.SATRip-AVC].torrent без регистрации
Золото ЗОЛОТАЯ РАЗДАЧА! СКАЧАННОЕ НЕ ЗАСЧИТЫВАЕТСЯ! Золото
Дата: Зарегистрирован   [ Тип: внешний ] Как тут cкачать?
MAGNET ссылка
MAGNET ссылка


Скачать .torrent

12 KB

Статус: проверено DHT
Скачан: торрент - 12 раз, раздача полностью - 2 раз
Размер: 2,17 GB
Оценка:  - (Голосов: 0)
Поблагодарили: 1
Поделиться ссылкой на эту раздачу с друзьями:
В контактеFacebookОдноклассникиTwitterLivejournalМой МирLiveinternet
 

 
Показать сообщения:    


Вы не можете начинать темы
Вы не можете отвечать на сообщения
Вы не можете редактировать свои сообщения
Вы не можете удалять свои сообщения
Вы не можете голосовать в опросах
Вы не можете прикреплять файлы к сообщениям
Вы можете скачивать файлы