Loading...
Error

Скачать Дикарка (Юрий Павлов) [2002, мелодрама, комедия, экранизация, DVDRip-AVC] торрент без регистрации

Статистика раздачи
Размер:  1,82 GB   |    Скачан:  8 раз
Сидов:  1  [  0 KB/s  ]  
 
 
 
Автор Сообщение

Marsianka

[] 

Название: Дикарка
Год выпуска: 2002
Выпущено: Россия, Ленфильм, Слово
Жанр: мелодрама, комедия, экранизация
Режиссер: Юрий Павлов
В ролях: Сергей Шакуров, Дарья Мороз, Ирина Розанова, Римма Маркова, Сергей Никоненко, Нина Усатова, Валерий Дегтярь, Юрий Внуков, Игорь Волков (II), Евгений Меркурьев

О фильме:
После долгих странствий по заграницам в родное имение Миловида возвращается стареющий помещик Александр Львович Ашметьев. Вскоре он сообщает своей нелюбимой супруге Марье Петровне, что намерен вновь уехать в Париж, прочь от скучной жизни в деревне. В отчаянии Марья Петровна придумывает хитрый план: она знакомит Александра Львовича с Варей Зубаревой, юной красавицей, живущей в соседнем имении, надеясь, что этот "магнит" хоть ненадолго удержит дома ветреного мужа. Но шутливая интрига принимает серьезный оборот, когда становится ясно, что элегантный Ашметьев не только вскружил голову смелой и независимой Вареньке, но и сам всерьез увлекся ею. И только теперь Александр Львович начинает задумываться, какими последствиями для его размеренной жизни может обернуться страстный роман с очаровательной "барышней-дикаркой"...



Продолжительность: 01:37:11

Файл
Качество: DVDRip-AVC
Видео: MPEG-4 AVC, 2289 Кбит/сек, 706x448@753x448, 25,000 кадров/сек
Аудио: AC3, 6 ch, 384 Кбит/сек
Субтитры: нет
Навигация по главам: есть

Релиз от:
Общее
Уникальный идентификатор : 252812089888356662323357490328565547809 (0xBE31D6614845F536A839CD8A15B58321)
Полное имя : Dikarka.2002.DVDRip-AVC.mkv
Формат : Matroska
Версия формата : Version 2
Размер файла : 1,82 Гбайт
Продолжительность : 1 ч. 37 м.
Общий поток : 2675 Кбит/сек
Дата кодирования : UTC 2017-01-03 20:54:43
Программа кодирования : mkvmerge v3.4.0 ('Rapunzel') сборка от May 15 2010 09:38:20
Библиотека кодирования : libebml v0.8.0 + libmatroska v0.9.0

Видео
Идентификатор : 1
Формат : AVC
Формат/Информация : Advanced Video Codec
Профиль формата : High@L4.1
Параметр CABAC формата : Да
Параметр ReFrames формата : 16 кадров
Идентификатор кодека : V_MPEG4/ISO/AVC
Продолжительность : 1 ч. 37 м.
Битрейт : 2289 Кбит/сек
Ширина : 706 пикселей
Высота : 448 пикселей
Соотношение сторон : 5:3
Режим частоты кадров : Постоянный
Частота кадров : 25,000 кадров/сек
Цветовое пространство : YUV
Субдискретизация насыщенности : 4:2:0
Битовая глубина : 8 бит
Тип развёртки : Прогрессивная
Бит/(Пиксели*Кадры) : 0.289
Размер потока : 1,52 Гбайт (84%)
Заголовок : RIP - MZMA
Библиотека кодирования : x264 core 148 r2638 7599210
Настройки программы : cabac=1 / ref=16 / deblock=1:-2:-2 / analyse=0x3:0x133 / me=umh / subme=10 / psy=1 / psy_rd=1.00:0.10 / mixed_ref=1 / me_range=32 / chroma_me=1 / trellis=2 / 8x8dct=1 / cqm=0 / deadzone=21,11 / fast_pskip=0 / chroma_qp_offset=-3 / threads=6 / lookahead_threads=1 / sliced_threads=0 / nr=0 / decimate=0 / interlaced=0 / bluray_compat=0 / constrained_intra=0 / bframes=16 / b_pyramid=2 / b_adapt=2 / b_bias=0 / direct=3 / weightb=1 / open_gop=0 / weightp=2 / keyint=250 / keyint_min=25 / scenecut=40 / intra_refresh=0 / rc_lookahead=40 / rc=2pass / mbtree=0 / bitrate=2289 / ratetol=1.0 / qcomp=0.60 / qpmin=0 / qpmax=69 / qpstep=4 / cplxblur=20.0 / qblur=0.5 / vbv_maxrate=50000 / vbv_bufsize=62500 / nal_hrd=none / filler=0 / ip_ratio=1.40 / pb_ratio=1.30 / aq=1:1.00
Default : Нет
Forced : Нет

Аудио
Идентификатор : 2
Формат : AC-3
Формат/Информация : Audio Coding 3
Расширение режима : CM (complete main)
Параметр Endianness формата : Big
Идентификатор кодека : A_AC3
Продолжительность : 1 ч. 37 м.
Вид битрейта : Постоянный
Битрейт : 384 Кбит/сек
Каналы : 6 каналов
Расположение каналов : Front: L C R, Side: L R, LFE
Частота : 48,0 КГц
Частота кадров : 31,250 кадров/сек (1536 spf)
Битовая глубина : 16 бит
Метод сжатия : С потерями
Размер потока : 267 Мбайт (14%)
Default : Да
Forced : Нет

Меню
00:00:00.000 : en:Chapter 1
00:06:48.000 : en:Chapter 2
00:17:53.400 : en:Chapter 3
00:23:13.800 : en:Chapter 4
00:31:22.200 : en:Chapter 5
00:41:24.600 : en:Chapter 6
00:49:51.600 : en:Chapter 7
00:58:22.800 : en:Chapter 8
01:06:54.000 : en:Chapter 9
01:16:04.800 : en:Chapter 10
01:27:38.400 : en:Chapter 11
01:34:05.400 : en:Chapter 12
01:37:10.200 : en:Chapter 13



Скачать Дикарка.(Юрий.Павлов).[2002.мелодрама.комедия.экранизация.DVDRip-AVC].torrent без регистрации
Золото ЗОЛОТАЯ РАЗДАЧА! СКАЧАННОЕ НЕ ЗАСЧИТЫВАЕТСЯ! Золото
Дата: Зарегистрирован   [ Тип: внутренний ] Как тут cкачать?
MAGNET ссылка
MAGNET ссылка


Скачать .torrent

19 KB

Статус: проверено DHT
Скачан: торрент - 8 раз, раздача полностью - 1 раз
Размер: 1,82 GB
Оценка:  - (Голосов: 0)
Поблагодарили: 1
Поделиться ссылкой на эту раздачу с друзьями:
В контактеFacebookОдноклассникиTwitterLivejournalМой МирLiveinternet
 

 
Показать сообщения:    


Вы не можете начинать темы
Вы не можете отвечать на сообщения
Вы не можете редактировать свои сообщения
Вы не можете удалять свои сообщения
Вы не можете голосовать в опросах
Вы не можете прикреплять файлы к сообщениям
Вы можете скачивать файлы